<?xml version="1.0" standalone="no"?>
<!DOCTYPE svg PUBLIC "-//W3C//DTD SVG 1.1//EN" "http://www.w3.org/Graphics/SVG/1.1/DTD/svg11.dtd" >
<svg xmlns="http://www.w3.org/2000/svg" xmlns:xlink="http://www.w3.org/1999/xlink" version="1.1">
<metadata>
Created by FontForge 20190801 at Mon Aug 27 23:34:24 2018
 By www-data
Copyright (c) 2018 by Luzi Type. All rights reserved. |DCNT
</metadata>
<defs>
<font id="RecifeTextBoldItalic" horiz-adv-x="620" >
  <font-face 
    font-family="RecifeTextBoldItalic"
    font-weight="700"
    font-style="italic"
    font-stretch="normal"
    units-per-em="1000"
    panose-1="0 0 8 0 0 0 0 0 0 0"
    ascent="757"
    descent="-243"
    x-height="513"
    cap-height="700"
    bbox="-152 -386 1312 1086"
    underline-thickness="50"
    underline-position="-150"
    slope="-13"
    unicode-range="U+000D-FB02"
  />
<missing-glyph horiz-adv-x="463" 
 />
    <glyph glyph-name="fi" unicode="fi" horiz-adv-x="638" 
d="M602 82l-12 -56q-32 -17 -67.5 -27t-66.5 -10q-49 0 -74.5 26t-25.5 76q0 35 10 74l73 293h-153l-106 -458h-149l105 458h-113l12 55h112l5 22q28 122 98 190.5t161 68.5q41 0 86 -13l-32 -146q-21 12 -50 19t-57 7q-53 0 -90.5 -24.5t-37.5 -65.5q0 -34 23.5 -46
t53.5 -12h292l-83 -340q-1 -4 -6 -23t-5 -36q0 -46 42 -46q25 0 55 14z" />
    <glyph glyph-name="f_f_j" unicode="ffj" horiz-adv-x="903" 
d="M803 114q-19 -77 -48.5 -133.5t-95 -99.5t-176.5 -51l13 58q51 17 81 48.5t46 71t31 100.5l88 350h-153l-106 -458h-149l105 458h-153l-106 -458h-149l105 458h-113l12 55h113l5 22q28 122 97.5 190.5t159.5 68.5q29 0 52 -5l-31 -139q-33 11 -71 11q-55 0 -92 -24.5
t-37 -65.5q0 -34 23.5 -46t53.5 -12h145l5 22q28 123 98 191t161 68q41 0 86 -13l-33 -146q-21 12 -50 19t-57 7q-52 0 -89.5 -24t-37.5 -66q0 -34 23 -46t53 -12h290z" />
    <glyph glyph-name="f_f_t" unicode="fft" horiz-adv-x="994" 
d="M891 458l-72 -312q-4 -17 -4 -31q0 -25 14 -36t41 -11q21 0 68 9l-12 -49q-82 -39 -151 -39q-55 0 -84.5 26t-29.5 75q0 19 6 46l75 322h-152l-106 -458h-149l105 458h-154l-106 -458h-149l105 458h-113l12 55h113l5 22q28 122 97.5 190.5t159.5 68.5q17 0 52 -5
l-31 -139q-33 11 -71 11q-55 0 -92 -24.5t-37 -65.5q0 -34 23.5 -46t53.5 -12h145l5 22q28 123 98 191t161 68q41 0 86 -13l-33 -146q-21 12 -50 19t-57 7q-52 0 -89.5 -24t-37.5 -66q0 -34 23 -46t53 -12h69q56 13 104 43.5t98 78.5h49l-29 -122h123l-13 -55h-122z" />
    <glyph glyph-name="f_j" unicode="fj" horiz-adv-x="603" 
d="M502 114q-19 -74 -46.5 -129.5t-93.5 -100.5t-180 -54l15 66q49 16 78.5 44t45.5 66t32 102l89 350h-156l-106 -458h-149l105 458h-113l12 55h113l5 22q28 123 98 191t162 68q40 0 85 -13l-32 -146q-21 12 -50.5 19t-57.5 7q-55 0 -91 -25t-36 -65q0 -34 23.5 -46
t53.5 -12h294z" />
    <glyph glyph-name="f_t" unicode="ft" horiz-adv-x="690" 
d="M587 458l-72 -312q-4 -17 -4 -31q0 -25 14 -36t41 -11q21 0 68 9l-12 -49q-83 -39 -151 -39q-55 0 -84.5 26t-29.5 75q0 19 6 46l75 322h-152l-106 -458h-149l105 458h-113l12 55h112l5 22q28 123 97.5 191t161.5 68q40 0 86 -13l-33 -146q-21 12 -50 19t-57 7
q-52 0 -89.5 -24t-37.5 -66q0 -34 23 -46t53 -12h71q56 13 104 43.5t98 78.5h49l-29 -122h123l-13 -55h-122z" />
    <glyph glyph-name="ff" unicode="ff" horiz-adv-x="683" 
d="M573.5 637q-37.5 -24 -37.5 -66q0 -34 23 -46t53 -12h111l-12 -55h-121l-106 -458h-149l105 458h-154l-106 -458h-149l105 458h-113l12 55h113l5 22q28 122 97.5 190.5t159.5 68.5q17 0 52 -5l-31 -139q-33 11 -71 11q-55 0 -92 -24.5t-37 -65.5q0 -34 23.5 -46t53.5 -12
h145l5 22q28 123 98 191t161 68q41 0 86 -13l-33 -146q-21 12 -50 19t-57 7q-52 0 -89.5 -24z" />
    <glyph glyph-name="ffi" unicode="ffi" horiz-adv-x="941" 
d="M905 82l-12 -56q-32 -17 -67.5 -27t-68.5 -10q-49 0 -73.5 26.5t-24.5 77.5q0 33 10 72l73 293h-153l-106 -458h-149l105 458h-153l-106 -458h-149l105 458h-113l12 55h113l5 22q28 122 97.5 190.5t159.5 68.5q17 0 52 -5l-31 -139q-33 11 -71 11q-55 0 -92 -24.5
t-37 -65.5q0 -34 23.5 -46t53.5 -12h145l5 22q28 123 98 191t161 68q41 0 86 -13l-33 -146q-21 12 -50 19t-57 7q-52 0 -89.5 -24t-37.5 -66q0 -34 23 -46t53 -12h290l-83 -340q-10 -40 -10 -59q0 -46 41 -46q25 0 55 14z" />
    <glyph glyph-name=".notdef" horiz-adv-x="463" 
 />
    <glyph glyph-name=".null" horiz-adv-x="473" 
 />
    <glyph glyph-name="nonmarkingreturn" unicode="&#xd;" horiz-adv-x="473" 
 />
    <glyph glyph-name="space" unicode=" " horiz-adv-x="215" 
 />
    <glyph glyph-name="exclam" unicode="!" horiz-adv-x="390" 
d="M159 232l54 468h178l-175 -468h-57zM87.5 18.5q-28.5 28.5 -28.5 70.5t28.5 69.5t73.5 27.5q46 0 74.5 -28t28.5 -69q0 -42 -28.5 -70.5t-73.5 -28.5q-46 0 -74.5 28.5z" />
    <glyph glyph-name="quotedbl" unicode="&#x22;" horiz-adv-x="416" 
d="M298 735l-101 -272h-49l27 272h123zM501 735l-101 -272h-49l27 272h123z" />
    <glyph glyph-name="numbersign" unicode="#" horiz-adv-x="613" 
d="M483 428l-33 -142h130v-58h-143l-53 -228h-70l53 228h-127l-52 -228h-70l53 228h-113v58h127l32 142h-140v58h154l46 204h70l-46 -204h126l47 204h69l-47 -204h103v-58h-116zM413 428h-126l-32 -142h126z" />
    <glyph glyph-name="dollar" unicode="$" horiz-adv-x="640" 
d="M471.5 360.5q32.5 -25.5 55.5 -64t23 -91.5q0 -60 -29.5 -106.5t-82.5 -72.5t-119 -26q-24 0 -54 5l-30 -132h-42l33 141q-67 21 -112 70.5t-54 119.5h175q-1 -7 -1 -17q0 -44 15 -74l41 177h-1q-72 46 -112.5 93t-40.5 120q0 59 29.5 103.5t82.5 69t122 24.5h15l23 101
h42l-24 -105q80 -13 131.5 -58.5t51.5 -121.5h-176q3 17 3 32q0 53 -27 78l-45 -194q7 -5 21 -13q54 -33 86.5 -58.5zM282 501.5q16 -23.5 46 -45.5l44 188q-6 1 -17 1q-40 0 -64.5 -24.5t-24.5 -63.5q0 -32 16 -55.5zM402 78q23 23 23 61q0 40 -25 68t-74 60l-45 -195
q25 -17 58 -17q40 0 63 23z" />
    <glyph glyph-name="percent" unicode="%" horiz-adv-x="945" 
d="M228 0h-82l602 700h82zM454 673.5q45 -38.5 45 -104.5q0 -52 -28 -95t-77.5 -67.5t-112.5 -24.5q-79 0 -123.5 39t-44.5 105q0 52 27.5 94.5t77 67t111.5 24.5q80 0 125 -38.5zM338 477.5q20 49.5 20 124.5q0 36 -7.5 50t-26.5 14q-30 0 -50 -49t-20 -125q0 -37 7 -50.5
t27 -13.5q30 0 50 49.5zM856 288.5q45 -38.5 45 -104.5q0 -52 -28 -95t-77.5 -67.5t-112.5 -24.5q-79 0 -123.5 39t-44.5 105q0 52 27.5 94.5t77 67t111.5 24.5q80 0 125 -38.5zM740 92.5q20 49.5 20 124.5q0 36 -7.5 50t-26.5 14q-30 0 -50 -49t-20 -125q0 -37 7 -50.5
t27 -13.5q30 0 50 49.5z" />
    <glyph glyph-name="ampersand" unicode="&#x26;" horiz-adv-x="731" 
d="M721 392l-6 -52l-17 -1q-18 -1 -27 -4t-21.5 -17t-30.5 -46q-20 -36 -32 -53.5t-35 -45.5l90 -126l-10 -47h-135l-45 63q-107 -81 -216 -81q-56 0 -102 20.5t-72.5 58.5t-26.5 90q0 70 52 125.5t151 84.5l-19 28q-33 48 -49 81t-16 77q0 86 66.5 128t163.5 42
q91 0 150 -36.5t59 -102.5q0 -61 -52 -106.5t-145 -81.5l124 -172q20 26 31 46.5t11 38.5q0 16 -8.5 24t-19.5 10t-18 2l-18 1l8 52h215zM323 504.5q13 -33.5 33 -59.5l16 -21q32 20 53.5 64t21.5 90q0 44 -19 68.5t-49 24.5t-49.5 -26t-19.5 -69q0 -38 13 -71.5zM420 107
l-157 218q-34 -20 -54 -50.5t-20 -70.5q0 -35 14.5 -66.5t43.5 -51.5t69 -20q56 0 104 41z" />
    <glyph glyph-name="quotesingle" unicode="'" horiz-adv-x="213" 
d="M298 735l-101 -272h-49l27 272h123z" />
    <glyph glyph-name="parenleft" unicode="(" horiz-adv-x="356" 
d="M75.5 -0.5q-39.5 98.5 -39.5 209.5q0 116 42.5 228.5t129.5 209t215 160.5l34 -49q-151 -95 -234 -238.5t-83 -308.5q0 -91 26 -179t81 -159l-54 -48q-78 76 -117.5 174.5z" />
    <glyph glyph-name="parenright" unicode=")" horiz-adv-x="355" 
d="M308.5 635.5q39.5 -98.5 39.5 -209.5q0 -116 -42.5 -228.5t-129.5 -209t-215 -160.5l-34 49q151 95 234 238.5t83 308.5q0 91 -26 179t-81 159l54 48q78 -76 117.5 -174.5z" />
    <glyph glyph-name="asterisk" unicode="*" horiz-adv-x="357" 
d="M132 501l90 77l-120 12l31 91l102 -63l-27 120h99l-31 -120l106 59l28 -82l-121 -17l93 -77l-79 -57l-45 110l-47 -110z" />
    <glyph glyph-name="plus" unicode="+" 
d="M513 242h-174l-43 -184h-63l43 184h-175l14 61h175l43 185h63l-43 -185h174z" />
    <glyph glyph-name="comma" unicode="," horiz-adv-x="304" 
d="M198.5 152q28.5 -34 28.5 -96q0 -69 -35 -116.5t-86.5 -71t-101.5 -25.5l14 63q55 8 89 30t34 53q0 14 -6.5 19.5t-15.5 8.5l-12 4l-20 7q-28 10 -41.5 30.5t-13.5 45.5q0 34 23.5 58t65.5 24q49 0 77.5 -34z" />
    <glyph glyph-name="hyphen" unicode="-" horiz-adv-x="387" 
d="M78 378h287l-22 -98h-287z" />
    <glyph glyph-name="period" unicode="." horiz-adv-x="300" 
d="M47.5 18.5q-28.5 28.5 -28.5 70.5t28.5 69.5t73.5 27.5q46 0 74.5 -28t28.5 -69q0 -42 -28.5 -70.5t-73.5 -28.5q-46 0 -74.5 28.5z" />
    <glyph glyph-name="slash" unicode="/" horiz-adv-x="443" 
d="M444 774h103l-508 -860h-103z" />
    <glyph glyph-name="zero" unicode="0" horiz-adv-x="666" 
d="M592 638q57 -62 57 -181q0 -111 -47 -219.5t-132.5 -178.5t-195.5 -70q-101 0 -158 62.5t-57 182.5q0 112 47 220t132.5 177t194.5 69q102 0 159 -62zM382.5 121q44.5 76 72 186.5t27.5 203.5q0 64 -13.5 99t-52.5 35q-48 0 -92.5 -76t-72 -186.5t-27.5 -203.5
q0 -64 13 -99t53 -35q48 0 92.5 76z" />
    <glyph glyph-name="one" unicode="1" horiz-adv-x="435" 
d="M267 90q0 -35 45 -38l55 -3l-12 -49h-369l12 49l55 3q54 3 66 54l109 469q-30 -10 -62 -14.5t-56 -4.5l12 55q60 0 118 20t102 59h63l-134 -575q-4 -16 -4 -25z" />
    <glyph glyph-name="two" unicode="2" horiz-adv-x="590" 
d="M219.5 658q70.5 42 146.5 42q54 0 96.5 -21t66.5 -59.5t24 -87.5q0 -66 -42 -126t-97.5 -105.5t-138.5 -102.5l-32 -22l-60 -42h344l-31 -134h-493l16 68l67 52l40 31q94 73 146.5 119t86.5 98t34 107q0 51 -28.5 81t-75.5 30q-80 0 -146 -87l-41 28q47 89 117.5 131z
" />
    <glyph glyph-name="three" unicode="3" horiz-adv-x="592" 
d="M481.5 318.5q43.5 -47.5 43.5 -113.5q0 -58 -31.5 -107.5t-90 -79t-134.5 -29.5q-98 0 -166 49.5t-80 144.5h172l-1 -17q0 -62 22.5 -96t62.5 -34q41 0 66 34t25 83q0 70 -56.5 114.5t-147.5 49.5l14 55q104 23 168 56t64 93q0 32 -20 52t-64 20q-47 0 -95 -23.5
t-79 -57.5l-39 32q46 70 122.5 113t162.5 43q58 0 98.5 -19t60.5 -50t20 -67q0 -62 -59 -109.5t-169 -69.5q87 -19 130.5 -66.5z" />
    <glyph glyph-name="four" unicode="4" horiz-adv-x="604" 
d="M585 304l-31 -134h-112l-40 -170h-149l40 170h-293l29 126l401 394h132l-89 -386h112zM324 304l59 259l-262 -259h203z" />
    <glyph glyph-name="five" unicode="5" horiz-adv-x="576" 
d="M251 556l-33 -89q151 -9 227 -74.5t76 -169.5q0 -66 -30.5 -119.5t-88.5 -84t-139 -30.5q-98 0 -162 48t-78 146h173q-1 -8 -1 -19q0 -58 24.5 -93t66.5 -35t70.5 34.5t28.5 86.5q0 80 -72 124.5t-201 48.5l136 360h335l-31 -134h-301z" />
    <glyph glyph-name="six" unicode="6" horiz-adv-x="636" 
d="M437 610q-71 -35 -121 -96.5t-74 -142.5q24 26 62 44.5t81 18.5q50 0 95 -24.5t73.5 -71.5t28.5 -112q0 -67 -31 -121t-89.5 -85t-136.5 -31q-84 0 -144 36.5t-90.5 98t-30.5 135.5q0 106 60.5 207.5t180 167.5t286.5 66h18l-13 -55q-84 0 -155 -35zM390.5 312.5
q-33.5 40.5 -83.5 40.5q-43 0 -75 -21q-4 -12 -7.5 -46.5t-3.5 -65.5q0 -82 29.5 -133t77.5 -51q45 0 70.5 43t25.5 110q0 83 -33.5 123.5z" />
    <glyph glyph-name="seven" unicode="7" horiz-adv-x="537" 
d="M606 690l-15 -68l-369 -622h-124l376 556h-395l31 134h496z" />
    <glyph glyph-name="eight" unicode="8" horiz-adv-x="642" 
d="M558 448.5q-52 -41.5 -142 -58.5q52 -33 82 -57t51.5 -60t21.5 -84q0 -60 -34 -105t-96.5 -70t-145.5 -25q-81 0 -140.5 23t-91.5 62t-32 86q0 65 55 112.5t147 60.5q-49 35 -76.5 76.5t-27.5 98.5q0 92 68.5 142t177.5 50q68 0 121.5 -19.5t83.5 -54t30 -78.5
q0 -58 -52 -99.5zM428.5 483.5q20.5 37.5 20.5 76.5q0 41 -20.5 67t-59.5 26t-63.5 -26t-24.5 -70q0 -45 24 -77t69 -64q34 30 54.5 67.5zM385.5 63.5q32.5 29.5 32.5 76.5q0 33 -16.5 59t-40 45t-67.5 48l-20 13q-37 -28 -59.5 -67.5t-22.5 -86.5q0 -49 27.5 -83t82.5 -34
q51 0 83.5 29.5z" />
    <glyph glyph-name="nine" unicode="9" horiz-adv-x="637" 
d="M240 79q71 35 121 96.5t74 142.5q-24 -26 -62 -44.5t-81 -18.5q-50 0 -95 24.5t-73.5 71.5t-28.5 112q0 67 31 121t89.5 85t136.5 31q84 0 144 -36.5t90.5 -98t30.5 -135.5q0 -106 -60.5 -207.5t-180 -167.5t-286.5 -66h-18l13 55q84 0 155 35zM286.5 376.5
q33.5 -40.5 83.5 -40.5q43 0 75 21q4 12 7.5 46.5t3.5 65.5q0 82 -29.5 133t-77.5 51q-45 0 -70.5 -43t-25.5 -110q0 -83 33.5 -123.5z" />
    <glyph glyph-name="colon" unicode=":" horiz-adv-x="311" 
d="M58.5 18.5q-28.5 28.5 -28.5 70.5t28.5 69.5t73.5 27.5q46 0 74.5 -28t28.5 -69q0 -42 -28.5 -70.5t-73.5 -28.5q-46 0 -74.5 28.5zM125.5 354.5q-28.5 28.5 -28.5 70.5t28.5 69.5t73.5 27.5q46 0 74.5 -28t28.5 -69q0 -42 -28.5 -70.5t-73.5 -28.5q-46 0 -74.5 28.5z
" />
    <glyph glyph-name="semicolon" unicode=";" horiz-adv-x="316" 
d="M210.5 152q28.5 -34 28.5 -96q0 -69 -35 -116.5t-86.5 -71t-101.5 -25.5l14 63q55 8 89 30t34 53q0 14 -6.5 19.5t-15.5 8.5l-12 4l-20 7q-28 10 -41.5 30.5t-13.5 45.5q0 34 23.5 58t65.5 24q49 0 77.5 -34zM135.5 354.5q-28.5 28.5 -28.5 70.5t28.5 69.5t73.5 27.5
q46 0 74.5 -28t28.5 -69q0 -42 -28.5 -70.5t-73.5 -28.5q-46 0 -74.5 28.5z" />
    <glyph glyph-name="less" unicode="&#x3c;" 
d="M115 240l10 47l387 205l30 -58l-343 -174l249 -170l-41 -55z" />
    <glyph glyph-name="equal" unicode="=" 
d="M128 319l15 61h392l-15 -61h-392zM93 164l14 61h392l-14 -61h-392z" />
    <glyph glyph-name="greater" unicode="&#x3e;" 
d="M508 286l-10 -47l-387 -205l-30 58l343 174l-249 170l41 55z" />
    <glyph glyph-name="question" unicode="?" horiz-adv-x="434" 
d="M365.5 643q67.5 -67 67.5 -153q0 -50 -20.5 -81t-50.5 -46.5t-73 -28.5q-48 -15 -70.5 -28t-27.5 -40q-2 -10 -2 -32h-35q-35 48 -35 94q0 52 37 78t101 42l25 6q47 12 67.5 21.5t20.5 28.5q0 35 -69.5 51t-175.5 25l37 162q136 -32 203.5 -99zM77.5 18.5
q-28.5 28.5 -28.5 70.5t28.5 69.5t73.5 27.5q46 0 74.5 -28t28.5 -69q0 -42 -28.5 -70.5t-73.5 -28.5q-46 0 -74.5 28.5z" />
    <glyph glyph-name="at" unicode="@" horiz-adv-x="902" 
d="M693 650q81 -33 131 -102t50 -172q0 -77 -27.5 -146.5t-78 -112t-115.5 -42.5q-46 0 -81.5 22.5t-51.5 61.5q-30 -44 -64 -64t-77 -20q-67 0 -101 42t-34 106q0 61 30 122.5t84.5 101.5t122.5 40q35 0 63.5 -11.5t42.5 -30.5l13 35h105l-69 -193q-11 -33 -17.5 -55.5
t-6.5 -42.5q0 -53 55 -53q40 0 72 31t50 83.5t18 113.5q0 87 -38.5 145.5t-103 86.5t-145.5 28q-124 0 -217 -60t-142 -154.5t-49 -194.5q0 -83 35 -144.5t99 -95t150 -33.5q44 0 89 9l6 -51q-46 -20 -118 -20q-106 0 -180 44.5t-110.5 119t-36.5 164.5q0 114 56.5 224
t163.5 180.5t251 70.5q95 0 176 -33zM563 388q-4 20 -20 33.5t-44 13.5q-39 0 -71.5 -27.5t-50.5 -69.5t-18 -82q0 -42 18.5 -67.5t54.5 -25.5q28 0 58 20z" />
    <glyph glyph-name="A" unicode="A" horiz-adv-x="766" 
d="M658.5 78.5q24.5 -18.5 51.5 -21.5l-13 -57h-329l13 57q42 0 65 17t23 48q0 5 -2 17l-14 90h-232l-56 -92q-10 -16 -10 -31q0 -22 23 -35.5t61 -13.5l-14 -57h-274l13 57q44 7 70.5 25t50.5 55l352 563h98l94 -573q5 -30 29.5 -48.5zM443 290l-38 244l-148 -244h186z" />
    <glyph glyph-name="B" unicode="B" horiz-adv-x="672" 
d="M578 313q44 -43 44 -103q0 -57 -35.5 -105t-100.5 -76.5t-150 -28.5h-360l13 53l23 2q27 2 47 17t26 42l109 467q4 16 4 26q0 35 -50 38l-33 2l13 53h328q58 0 103 -18.5t70 -51.5t25 -74t-24.5 -81t-73 -68t-116.5 -35q94 -16 138 -59zM349 395q42 0 73.5 22t47.5 56.5
t16 70.5q0 42 -25 71t-70 29h-26l-57 -249h41zM244 121q-3 -12 -3 -21q0 -43 50 -43h18q41 0 72.5 22.5t48.5 59t17 74.5q0 53 -32.5 89t-94.5 36h-26z" />
    <glyph glyph-name="C" unicode="C" horiz-adv-x="698" 
d="M530 524q0 65 -22 100.5t-73 35.5q-59 0 -109 -48t-79 -122.5t-29 -150.5q0 -94 47 -155.5t138 -61.5q73 0 127.5 40t86.5 111h49q-27 -131 -110 -211t-212 -80q-92 0 -155 41.5t-94 110t-31 151.5q0 105 47.5 205t137 163.5t209.5 63.5q116 0 183.5 -63t70.5 -185h-185
q3 29 3 55z" />
    <glyph glyph-name="D" unicode="D" horiz-adv-x="778" 
d="M613 660q70 -40 107 -107.5t37 -149.5q0 -104 -54.5 -196.5t-151.5 -149.5t-220 -57h-355l13 53l23 2q27 2 47 17t26 42l109 467q4 16 4 26q0 35 -50 38l-33 2l13 53h319q96 0 166 -40zM454 102q59 45 93.5 122.5t34.5 169.5q0 71 -21.5 128t-61.5 89.5t-95 32.5h-39
l-121 -523q-3 -12 -3 -21q0 -43 50 -43h34q70 0 129 45z" />
    <glyph glyph-name="E" unicode="E" horiz-adv-x="688" 
d="M598 500v14q0 63 -33.5 96.5t-98.5 33.5h-101l-60 -259h60q50 0 77.5 26.5t40.5 78.5h57l-62 -268h-58q5 19 5 41q0 33 -18 49t-57 16h-58l-48 -207q-3 -12 -3 -21q0 -43 50 -43h52q76 0 134.5 48t93.5 133h58l-76 -238h-577l13 53l23 2q27 2 47 17t26 42l109 467
q4 16 4 26q0 35 -50 38l-33 2l13 53h577l-46 -200h-61z" />
    <glyph glyph-name="F" unicode="F" horiz-adv-x="648" 
d="M705 700l-46 -200h-57q0 70 -34 107t-102 37h-101l-59 -259h59q50 0 77.5 26.5t40.5 78.5h57l-61 -268h-58q5 25 5 40q0 66 -76 66h-59l-49 -214q-2 -8 -2 -17q0 -19 13 -30t37 -12l52 -2l-12 -53h-354l13 53l20 2q64 7 76 59l110 472q2 10 2 16q0 40 -49 43l-33 2l13 53
h577z" />
    <glyph glyph-name="G" unicode="G" horiz-adv-x="728" 
d="M716 337l-13 -61h-62l-51 -238q-128 -56 -234 -56q-97 0 -163 41t-98 110t-32 152q0 104 48 204t138 164t210 64q115 0 182 -63t70 -185h-185q3 29 3 54q0 65 -22 101t-74 36q-63 0 -112 -50.5t-76.5 -130.5t-27.5 -164q0 -80 25 -139t67 -91t93 -32q20 0 35 9l47 214
h-121l13 61h340z" />
    <glyph glyph-name="H" unicode="H" horiz-adv-x="837" 
d="M904 700l-13 -53l-22 -3q-30 -4 -49 -17.5t-25 -40.5l-109 -468q-3 -13 -3 -22q0 -38 49 -41l33 -2l-13 -53h-334l13 53l23 2q28 2 47 17t26 42l50 213h-286l-49 -213q-2 -8 -2 -17q0 -19 13 -29.5t37 -12.5l32 -2l-12 -53h-334l13 53l19 2q65 7 77 59l109 468q3 14 3 23
q0 37 -49 40l-33 2l14 53h333l-13 -53l-22 -2q-61 -6 -74 -59l-47 -198h285l46 193q3 12 3 24q0 37 -50 40l-33 2l13 53h334z" />
    <glyph glyph-name="I" unicode="I" horiz-adv-x="414" 
d="M250 96q0 -19 14 -29.5t36 -11.5l42 -2l-12 -53h-354l13 53l32 2q29 2 48 16.5t26 42.5l109 468q3 14 3 22q0 39 -49 41l-43 2l13 53h354l-13 -53l-33 -2q-28 -2 -47 -16.5t-26 -42.5l-109 -464q-4 -18 -4 -26z" />
    <glyph glyph-name="J" unicode="J" horiz-adv-x="370" 
d="M447 700l-12 -53l-30 -2q-61 -5 -74 -59l-108 -464q-23 -99 -99 -173.5t-215 -126.5l-25 39l56 48q47 40 78 92t42 98l113 487q2 10 2 17q0 39 -49 42l-42 2l12 53h351z" />
    <glyph glyph-name="K" unicode="K" horiz-adv-x="751" 
d="M240 97q0 -39 50 -42l32 -2l-12 -53h-334l13 53l21 2q29 2 49 17t26 42l110 472q3 12 3 21q0 22 -15 29.5t-35 8.5l-33 2l13 53h344l-13 -53l-33 -2q-27 -2 -47 -17t-26 -42l-111 -472q-2 -12 -2 -17zM835 700l-14 -56q-51 -3 -122 -57l-237 -177l151 -283
q18 -35 37.5 -54t43.5 -20l-12 -53h-179q-15 23 -32 57l-155 309l247 200q15 12 23.5 26t8.5 26t-10 19.5t-28 8.5l-25 1l13 53h290z" />
    <glyph glyph-name="L" unicode="L" horiz-adv-x="668" 
d="M629 238l-76 -238h-577l13 53l22 2q61 5 74 59l108 463q4 18 4 28q0 37 -49 40l-33 2l13 53h345l-13 -53l-35 -2q-28 -2 -47 -16.5t-26 -42.5l-109 -465q-2 -10 -2 -18q0 -20 13.5 -33t38.5 -13h50q76 0 134.5 48t93.5 133h58z" />
    <glyph glyph-name="M" unicode="M" horiz-adv-x="941" 
d="M1008 700l-12 -53l-23 -2q-30 -5 -48.5 -18.5t-24.5 -40.5l-109 -464q-4 -16 -4 -23q0 -41 50 -44l32 -2l-13 -53h-333l13 53l22 2q62 6 74 59l105 448l-334 -551h-58l-84 549l-97 -422q-4 -18 -4 -28q0 -22 13.5 -38t36.5 -17l48 -2l-13 -53h-279l13 53l27 2
q31 3 53.5 25t30.5 54l105 452q2 10 2 16q0 40 -50 43l-32 2l12 53h273l68 -470l270 470h270z" />
    <glyph glyph-name="N" unicode="N" horiz-adv-x="795" 
d="M877 700l-13 -53l-25 -2q-34 -3 -55.5 -24t-29.5 -55l-131 -566h-60l-281 520l-88 -378q-5 -21 -5 -31q0 -24 14 -39.5t37 -16.5l47 -2l-13 -53h-278l12 53l27 2q28 2 53 24.5t32 54.5l101 440l-12 21q-17 29 -38 39t-56 13l13 53h237l242 -454l74 320q3 12 3 24
q0 24 -14 39t-37 16l-47 2l13 53h278z" />
    <glyph glyph-name="O" unicode="O" horiz-adv-x="804" 
d="M208 25q-71 43 -106 116t-35 161q0 105 49 200.5t140 155t211 59.5q102 0 172.5 -43t105.5 -116t35 -161q0 -105 -49 -200.5t-140 -155t-210 -59.5q-102 0 -173 43zM497.5 96q50.5 57 78.5 147t28 187q0 107 -35.5 169t-102.5 62q-65 0 -116.5 -56.5t-79.5 -146.5
t-28 -186q0 -107 36 -170t104 -63q65 0 115.5 57z" />
    <glyph glyph-name="P" unicode="P" horiz-adv-x="671" 
d="M578.5 676q52.5 -24 78.5 -64t26 -87q0 -58 -37 -112t-109.5 -88t-171.5 -34h-82l-41 -177q-2 -10 -2 -16q0 -20 13.5 -31t36.5 -12l42 -2l-12 -53h-344l13 53l22 2q27 2 47.5 17t26.5 42l110 472q3 12 3 22q0 22 -15 29t-35 8l-33 2l13 53h324q74 0 126.5 -24zM296 347
h33q56 0 97 26.5t62.5 68t21.5 84.5q0 50 -30 84t-86 34h-29z" />
    <glyph glyph-name="Q" unicode="Q" horiz-adv-x="814" 
d="M610 -45q88 -13 154 -13q18 0 44 2l-27 -118q-36 -10 -71 -10q-51 0 -119.5 20t-128.5 52l-202 105q-193 100 -193 308q0 106 49 202t140 155t211 59q102 0 172.5 -43t105.5 -116t35 -161q0 -94 -39.5 -181t-113 -148t-171.5 -78q66 -22 154 -35zM278 102q36 -63 104 -63
q65 0 115.5 57t78.5 147t28 187q0 107 -35.5 169t-102.5 62q-65 0 -116.5 -56.5t-79.5 -146.5t-28 -186q0 -107 36 -170z" />
    <glyph glyph-name="R" unicode="R" horiz-adv-x="711" 
d="M611.5 75.5q14.5 -19.5 36.5 -22.5l-11 -53h-167q-19 37 -29 64l-93 247h-60l-46 -197q-2 -12 -2 -17q0 -39 50 -42l32 -2l-12 -53h-334l13 53l22 2q27 2 47.5 17t26.5 42l110 472q2 14 2 19q0 37 -49 40l-33 2l13 53h329q69 0 118.5 -23.5t74.5 -63t25 -85.5
q0 -63 -45.5 -117.5t-130.5 -78.5l87 -209q11 -28 25.5 -47.5zM428 391.5q37 24.5 56 63t19 78.5q0 47 -28.5 79t-81.5 32h-27l-65 -277h41q49 0 86 24.5z" />
    <glyph glyph-name="S" unicode="S" horiz-adv-x="601" 
d="M423 524q3 18 3 34q0 48 -22 75t-63 27q-42 0 -67.5 -26t-25.5 -67q0 -32 16.5 -57t41 -43.5t67.5 -44.5q56 -34 90 -61t58.5 -67.5t24.5 -96.5q0 -63 -31 -112t-86.5 -76t-124.5 -27q-67 0 -126.5 25.5t-99 74t-47.5 114.5h184q-1 -7 -1 -17q0 -64 29.5 -101.5
t81.5 -37.5q41 0 65.5 24t24.5 64q0 33 -16.5 58.5t-41.5 44.5t-68 45q-5 4 -9.5 6.5t-7.5 4.5q-76 47 -118.5 97t-42.5 126q0 63 31 109.5t87 72t128 25.5q65 0 122 -21t93 -64.5t36 -107.5h-185z" />
    <glyph glyph-name="T" unicode="T" horiz-adv-x="719" 
d="M770 700l-29 -198h-51q-8 142 -120 142h-43l-123 -530q-2 -12 -2 -18q0 -19 13 -29.5t37 -11.5l43 -2l-13 -53h-354l13 53l33 2q28 2 47 16.5t26 42.5l123 530h-33q-111 0 -184 -142h-61l60 198h618z" />
    <glyph glyph-name="U" unicode="U" horiz-adv-x="802" 
d="M884 700l-12 -53l-26 -2q-34 -3 -55.5 -24t-29.5 -55l-75 -324q-30 -130 -112.5 -195t-193.5 -65q-74 0 -135 28.5t-96.5 83t-35.5 129.5q0 32 8 67l70 296q2 8 2 17q0 18 -12.5 29.5t-37.5 12.5l-33 2l14 53h335l-13 -53l-26 -2q-28 -2 -46.5 -15.5t-25.5 -43.5
l-75 -324q-7 -31 -7 -58q0 -69 40 -107t106 -38q71 0 124 45t74 133l79 329q3 15 3 22q0 25 -14.5 40.5t-37.5 16.5l-47 2l13 53h278z" />
    <glyph glyph-name="V" unicode="V" horiz-adv-x="720" 
d="M807 700l-13 -53q-42 -6 -72 -28t-57 -65l-346 -554h-59l-93 578q-5 30 -24 47t-48 22l13 53h313l-12 -53q-44 0 -63.5 -15t-19.5 -47q0 -7 2 -21l52 -352l203 340q23 37 23 61q0 18 -19.5 26t-61.5 8l12 53h270z" />
    <glyph glyph-name="W" unicode="W" horiz-adv-x="1047" 
d="M1134 700l-13 -53q-43 -4 -73 -26.5t-55 -66.5l-314 -554h-58l-56 442l-270 -442h-58l-71 578q-4 29 -22.5 46.5t-48.5 22.5l13 53h310l-13 -53q-43 0 -61.5 -12.5t-18.5 -46.5q0 -12 1 -20l30 -354l196 345l-3 19q-4 29 -23 46.5t-47 22.5l13 53h314l-13 -53
q-39 0 -61.5 -16t-22.5 -44l1 -24l29 -332l173 321q20 37 20 58q0 18 -17.5 27t-54.5 10l14 53h260z" />
    <glyph glyph-name="X" unicode="X" horiz-adv-x="717" 
d="M789 700l-12 -53q-45 -8 -66 -20t-49 -39l-205 -199l128 -273q11 -25 31.5 -42t43.5 -21l-13 -53h-315l12 53q32 0 50.5 13t18.5 34q0 12 -6 25l-74 156l-143 -151q-21 -22 -21 -39q0 -18 20 -28t53 -10l-13 -53h-278l13 53q21 2 55 18.5t57 39.5l230 227l-116 246
q-12 25 -36 42.5t-51 20.5l13 53h326l-13 -53q-32 0 -49.5 -12.5t-17.5 -31.5q0 -14 7 -28l64 -133l118 129q18 20 18 36q0 18 -19.5 29t-51.5 11l12 53h279z" />
    <glyph glyph-name="Y" unicode="Y" horiz-adv-x="697" 
d="M784 700l-12 -53q-46 -7 -74 -28t-64 -65l-200 -244l-44 -193q-3 -13 -3 -21q0 -19 12.5 -29.5t36.5 -11.5l43 -2l-13 -53h-354l13 53l33 2q28 2 47 16.5t26 42.5l40 173l-104 291q-22 61 -72 69l13 53h316l-13 -53q-35 0 -57 -15.5t-22 -40.5q0 -7 4 -21l69 -200
l144 185q23 29 23 49q0 21 -20.5 32t-59.5 11l13 53h279z" />
    <glyph glyph-name="Z" unicode="Z" horiz-adv-x="650" 
d="M698 655l-491 -598h113q76 0 134.5 48t93.5 133h58l-76 -238h-544l10 45l489 599h-129q-65 0 -114 -36.5t-77 -105.5h-61l45 198h559z" />
    <glyph glyph-name="bracketleft" unicode="[" horiz-adv-x="318" 
d="M213 787h187l-14 -55h-82l-190 -828h82l-13 -55h-187z" />
    <glyph glyph-name="backslash" unicode="\" horiz-adv-x="415" 
d="M134 774h77l110 -860h-77z" />
    <glyph glyph-name="bracketright" unicode="]" horiz-adv-x="318" 
d="M133 -152h-187l14 55h82l190 828h-82l13 55h187z" />
    <glyph glyph-name="asciicircum" unicode="^" horiz-adv-x="500" 
d="M167 436h-76l245 275h37l119 -275h-67l-98 124z" />
    <glyph glyph-name="underscore" unicode="_" horiz-adv-x="567" 
d="M-31 -97l18 77h466l-18 -77h-466z" />
    <glyph glyph-name="grave" unicode="`" horiz-adv-x="197" 
d="M115 756h117l43 -161h-76z" />
    <glyph glyph-name="a" unicode="a" horiz-adv-x="625" 
d="M591 87l-14 -56q-30 -16 -64.5 -26.5t-62.5 -10.5q-49 0 -73.5 28.5t-24.5 78.5q-21 -48 -59 -80t-96 -32q-78 0 -121.5 56t-43.5 140q0 78 37 157t103 130t147 51q39 0 70.5 -13.5t51.5 -35.5l6 28l138 21l-81 -350q-10 -42 -10 -58q0 -42 42 -42q24 0 55 14zM408 402
q-7 27 -24 46t-46 19q-41 0 -75.5 -38t-54.5 -95.5t-20 -111.5q0 -49 19.5 -80t59.5 -31q42 0 81 37z" />
    <glyph glyph-name="b" unicode="b" horiz-adv-x="607" 
d="M530 464.5q46 -58.5 46 -151.5q0 -80 -36 -154.5t-104.5 -122t-161.5 -47.5q-71 0 -133 28.5t-111 78.5l122 524q2 8 2 15q0 16 -11.5 26t-33.5 10h-13l13 51l223 35l-72 -314q25 36 63 58t85 22q76 0 122 -58.5zM340 73q36 38 55.5 96.5t19.5 116.5q0 62 -24.5 100.5
t-75.5 38.5q-36 0 -63 -18l-74 -320q9 -24 29.5 -38t49.5 -14q47 0 83 38z" />
    <glyph glyph-name="c" unicode="c" horiz-adv-x="503" 
d="M418 174h46q-25 -82 -85 -133.5t-147 -51.5q-91 0 -144 56t-53 152q0 83 39.5 158.5t107.5 121.5t147 46q70 0 114 -40t44 -126l-1 -16h-152q5 33 5 64q0 38 -10.5 55t-31.5 17q-32 0 -60.5 -34.5t-45.5 -88.5t-17 -109q0 -72 31.5 -110.5t86.5 -38.5q80 0 126 78z" />
    <glyph glyph-name="d" unicode="d" horiz-adv-x="626" 
d="M497 116q0 -20 8.5 -31.5t30.5 -11.5q25 0 56 14l-14 -56q-30 -16 -64.5 -26.5t-62.5 -10.5q-49 0 -73.5 28t-25.5 79q-20 -48 -58 -80t-97 -32q-78 0 -121.5 56t-43.5 139q0 79 37.5 158t103.5 130t147 51q67 0 107 -35l31 132q2 10 2 16q0 35 -43 35h-13l12 51l223 35
l-134 -584q-8 -34 -8 -57zM408 402q-6 28 -23 46.5t-46 18.5q-40 0 -75 -38.5t-55 -96t-20 -111.5q0 -49 18.5 -79.5t60.5 -30.5t81 37z" />
    <glyph glyph-name="e" unicode="e" horiz-adv-x="509" 
d="M419 174h46q-25 -82 -85.5 -133.5t-147.5 -51.5q-91 0 -144 57t-53 153q0 84 40 158.5t109 120t153 45.5q72 0 114 -33t42 -86q0 -74 -84 -116t-232 -65q0 -56 31.5 -91.5t84.5 -35.5q78 0 126 78zM248 448.5q-28 -28.5 -46 -75.5t-23 -102q179 38 179 149q0 57 -48 57
q-34 0 -62 -28.5z" />
    <glyph glyph-name="f" unicode="f" horiz-adv-x="379" 
d="M267 636q-36 -25 -36 -65q0 -34 23.5 -46t53.5 -12h111l-12 -55h-121l-105 -458h-150l105 458h-113l12 55h113l5 22q28 123 98 191t162 68q40 0 85 -13l-32 -146q-21 12 -50.5 19t-57.5 7q-55 0 -91 -25z" />
    <glyph glyph-name="g" unicode="g" horiz-adv-x="600" 
d="M619 410q-28 4 -86 21l-37 10q19 -16 31 -36t12 -48q0 -46 -33 -88t-92 -68.5t-132 -26.5q-65 0 -113 21q-28 -17 -28 -40q0 -20 15.5 -30.5t35.5 -13.5l120 -15q74 -9 130.5 -39t56.5 -98q0 -57 -45 -95t-114.5 -56.5t-145.5 -18.5q-69 0 -125 14.5t-89 42t-33 64.5
q0 42 39.5 66t100.5 30q-23 12 -37.5 37.5t-14.5 54.5q0 39 28 69.5t74 44.5q-29 20 -45.5 49t-16.5 65q0 52 32 97t89 72.5t128 27.5q35 0 73 -8q39 -6 69 -9t80 -3h96zM334.5 249q24.5 29 38 72.5t13.5 84.5q0 72 -47 72q-32 0 -57 -29t-38.5 -72t-13.5 -84q0 -73 48 -73
q32 0 56.5 29zM106 -11q-35 -28 -35 -62q0 -44 41 -66.5t109 -22.5q61 0 98 17.5t37 48.5q0 27 -27 39t-75 20z" />
    <glyph glyph-name="h" unicode="h" horiz-adv-x="624" 
d="M590 87l-14 -56q-31 -17 -65 -27t-64 -10q-50 0 -77 26.5t-27 76.5q0 31 10 68l38 144q9 34 9 57q0 26 -11.5 41t-34.5 15q-25 0 -55 -15.5t-46 -36.5l-85 -370h-149l143 620q2 8 2 15q0 16 -11.5 26t-33.5 10h-13l13 51l223 35l-77 -335q72 101 167 101q55 0 87.5 -33
t32.5 -96q0 -40 -12 -85l-36 -136q-2 -6 -7 -24t-5 -33q0 -43 43 -43q24 0 55 14z" />
    <glyph glyph-name="i" unicode="i" horiz-adv-x="334" 
d="M187.5 605.5q-25.5 25.5 -25.5 61.5q0 37 25 62t67 25q43 0 68 -25t25 -62t-25.5 -62t-67.5 -25q-41 0 -66.5 25.5zM207.5 148.5q-5.5 -19.5 -5.5 -36.5q0 -44 41 -44q25 0 55 14l-12 -56q-32 -17 -67.5 -27t-66.5 -10q-100 0 -100 103q0 32 10 73l55 222q2 10 2 15
q0 17 -11.5 26t-32.5 9h-13l12 51l225 35l-85 -350q-1 -5 -6.5 -24.5z" />
    <glyph glyph-name="j" unicode="j" horiz-adv-x="309" 
d="M181.5 605.5q-25.5 25.5 -25.5 61.5q0 37 25 62t67 25q43 0 68 -25t25 -62t-25.5 -62t-67.5 -25q-41 0 -66.5 25.5zM68 488l226 35l-102 -409q-19 -75 -47.5 -131.5t-94 -100.5t-178.5 -52l13 58q50 18 79.5 49t44.5 69t31 102l71 278q2 10 2 15q0 17 -11.5 26.5
t-33.5 9.5h-13z" />
    <glyph glyph-name="k" unicode="k" horiz-adv-x="637" 
d="M17 0l145 620q2 8 2 15q0 16 -11.5 26t-33.5 10h-13l13 51l223 35l-175 -757h-150zM535 384q-20 8 -40 8q-29 0 -53.5 -14t-44.5 -29.5t-26 -20.5l182 -328h-169l-142 255q25 29 73 89q48 61 80 96.5t69 59t75 23.5q35 0 72 -25l-32 -139q-24 17 -44 25z" />
    <glyph glyph-name="l" unicode="l" horiz-adv-x="330" 
d="M204 153.5q-5 -19.5 -5 -35.5q0 -45 42 -45q25 0 55 14l-13 -56q-66 -37 -132 -37q-50 0 -76.5 28t-26.5 80q0 30 9 68l105 450q2 8 2 15q0 16 -11.5 26t-33.5 10h-13l13 51l223 35l-132 -579q-1 -5 -6 -24.5z" />
    <glyph glyph-name="m" unicode="m" horiz-adv-x="946" 
d="M912 87l-13 -56q-31 -17 -65 -27t-65 -10q-51 0 -77.5 26.5t-26.5 76.5q0 31 10 68l40 154q7 27 7 46q0 28 -14 43t-37 15t-50.5 -14.5t-51.5 -38.5l-84 -370h-150l73 319q6 27 6 45q0 28 -13 43.5t-37 15.5q-23 0 -50.5 -14t-51.5 -39l-84 -370h-150l89 388q2 10 2 15
q0 36 -44 36h-13l12 51l208 33l-27 -117q40 57 90 87t99 30q48 0 80.5 -29.5t37.5 -86.5q41 57 90 86.5t97 29.5q56 0 90 -37t34 -99q0 -30 -12 -78l-35 -136q-2 -6 -6.5 -23.5t-4.5 -33.5q0 -43 42 -43q25 0 55 14z" />
    <glyph glyph-name="n" unicode="n" horiz-adv-x="633" 
d="M599 87l-13 -56q-31 -17 -65 -27t-64 -10q-50 0 -77 26.5t-27 75.5q0 32 10 69l38 144q1 3 5.5 21t4.5 36q0 56 -47 56q-26 0 -56 -15.5t-46 -36.5l-84 -370h-150l89 387q2 12 2 17q0 35 -44 35h-13l12 51l208 33l-27 -121q84 121 187 121q55 0 88 -33t33 -95
q0 -37 -13 -86l-36 -136q-1 -4 -6 -22.5t-5 -34.5q0 -43 41 -43q24 0 55 14z" />
    <glyph glyph-name="o" unicode="o" horiz-adv-x="593" 
d="M96 52.5q-56 63.5 -56 164.5q0 86 38.5 155.5t106.5 110t152 40.5q106 0 163 -63.5t57 -166.5q0 -85 -38.5 -154.5t-106.5 -109.5t-153 -40q-107 0 -163 63.5zM326.5 85q33.5 49 53.5 123t20 145q0 56 -14.5 90t-44.5 34q-37 0 -70.5 -49t-54 -123t-20.5 -144
q0 -56 14.5 -90.5t45.5 -34.5q37 0 70.5 49z" />
    <glyph glyph-name="p" unicode="p" horiz-adv-x="625" 
d="M507 499q40 -24 63.5 -71t23.5 -114q0 -79 -34.5 -151.5t-101 -117.5t-157.5 -45q-67 0 -117 33l-54 -234h-149l136 589q2 12 2 17q0 34 -44 34h-13l13 51l207 33l-20 -89q26 41 68.5 65t89.5 24t87 -24zM360.5 81.5q35.5 35.5 54.5 91t19 113.5q0 65 -25.5 102t-73.5 37
q-32 0 -64 -18l-72 -309q9 -23 29.5 -37.5t50.5 -14.5q46 0 81.5 35.5z" />
    <glyph glyph-name="q" unicode="q" horiz-adv-x="621" 
d="M586 523l-166 -724h-150l69 300q-53 -99 -147 -99q-75 0 -116.5 55.5t-41.5 138.5q0 79 37 155.5t103 125t148 48.5q80 0 121 -47l6 27zM408 399q-14 68 -68 68q-41 0 -75.5 -36t-54.5 -90.5t-20 -108.5q0 -49 19 -79.5t60 -30.5q45 0 84 37z" />
    <glyph glyph-name="r" unicode="r" horiz-adv-x="453" 
d="M486 509l-36 -149q-17 10 -40.5 15.5t-47.5 5.5q-33 0 -62.5 -15t-47.5 -38l-75 -328h-150l90 388q2 10 2 15q0 17 -11 26.5t-33 9.5h-13l12 51l208 33l-36 -164q48 83 89 123.5t91 40.5q32 0 60 -14z" />
    <glyph glyph-name="s" unicode="s" horiz-adv-x="482" 
d="M310 386q0 43 -20 67t-53 24q-31 0 -47 -17.5t-16 -41.5q0 -21 13 -35.5t29.5 -23t57.5 -27.5q67 -30 108.5 -69.5t41.5 -107.5q0 -74 -53 -120t-140 -46q-57 0 -106.5 20.5t-80 59t-31.5 90.5h152q-2 -16 -2 -26q0 -44 22.5 -71t61.5 -27q33 0 53.5 19t20.5 46t-19 46.5
t-40.5 30t-65.5 29.5q-59 25 -95.5 59t-36.5 96q0 44 21.5 81t64 59t102.5 22q54 0 101.5 -18t77 -51.5t30.5 -78.5h-152q1 5 1 11z" />
    <glyph glyph-name="t" unicode="t" horiz-adv-x="367" 
d="M299 28q-82 -39 -151 -39q-55 0 -84.5 26t-29.5 75q0 19 6 46l76 327h-73l11 50q56 13 104 43.5t98 78.5h49l-29 -122h123l-13 -55h-122l-72 -312q-4 -17 -4 -31q0 -25 14 -36t41 -11q21 0 68 9z" />
    <glyph glyph-name="u" unicode="u" horiz-adv-x="630" 
d="M596 87l-13 -56q-66 -37 -129 -37q-45 0 -71 25.5t-26 77.5q-37 -55 -77.5 -81.5t-90.5 -26.5q-60 0 -93.5 36.5t-33.5 101.5q0 36 11 80l44 179q2 8 2 17q0 34 -44 34h-13l13 51l224 35l-77 -320q-8 -30 -8 -50q0 -57 52 -57q22 0 45.5 10t40.5 27l83 367l155 23
l-81 -349q-1 -4 -5.5 -22.5t-4.5 -34.5q0 -44 42 -44q24 0 55 14z" />
    <glyph glyph-name="v" unicode="v" horiz-adv-x="557" 
d="M548 425q0 -70 -83.5 -177t-236.5 -248h-59l-50 388q-4 32 -17 43t-38 11h-11l12 51l189 30l39 -391q59 64 93 130.5t34 112.5q0 24 -10.5 43.5t-30.5 31.5l106 73q63 -40 63 -98z" />
    <glyph glyph-name="w" unicode="w" horiz-adv-x="791" 
d="M776 415q0 -81 -63 -183t-198 -232h-83l-31 299l-189 -299h-59l-32 378q-3 35 -14.5 48.5t-37.5 13.5h-17l12 50l203 33l6 -318l118 196l-10 99l150 23l27 -410q45 50 73 121.5t28 122.5q0 62 -43 94l107 72q53 -36 53 -108z" />
    <glyph glyph-name="x" unicode="x" horiz-adv-x="537" 
d="M272 523l50 -171q54 94 94 132.5t86 38.5q15 0 27 -4.5t28 -14.5l-43 -105q-13 8 -35 8q-34 0 -62 -21.5t-64 -62.5l-17 -19l51 -178q6 -22 17 -35.5t35 -13.5q15 0 30.5 6.5t37.5 20.5l-12 -51q-36 -30 -73.5 -47t-70.5 -17q-77 0 -103 86l-23 77q-85 -163 -190 -163
q-18 0 -41 6l6 117q16 -2 23 -3t19 -1q37 0 61.5 8.5t42 22t42.5 40.5l22 23l-54 178q-10 35 -22 49t-38 14h-23l13 50z" />
    <glyph glyph-name="y" unicode="y" horiz-adv-x="575" 
d="M530.5 476.5q17.5 -33.5 17.5 -81.5q0 -102 -69 -236.5t-180 -230t-232 -95.5q-33 0 -68 7.5t-64 21.5l32 127q34 -18 76.5 -27.5t79.5 -9.5q65 0 133 35l-117 392q-10 34 -28 48.5t-46 14.5h-7l11 50l190 31l111 -448q36 43 56 94t20 103q0 97 -74 177l105 74
q36 -13 53.5 -46.5z" />
    <glyph glyph-name="z" unicode="z" horiz-adv-x="537" 
d="M481 188l-66 -188h-419l9 37l337 422h-46q-42 0 -70.5 -15t-49 -42t-43.5 -73h-53l43 184h429l-8 -36l-337 -422h61q51 0 88 31.5t75 101.5h50z" />
    <glyph glyph-name="braceleft" unicode="{" horiz-adv-x="345" 
d="M250.5 735q22.5 33 69 52.5t124.5 19.5v-54q-48 0 -72 -12t-35 -34.5t-23 -72.5l-40 -160q-14 -55 -54.5 -85.5t-104.5 -41.5q45 -16 74 -41.5t29 -60.5q0 -13 -3 -25l-38 -172q-12 -53 -12 -85q0 -35 17.5 -54t60.5 -28l-26 -55q-72 9 -110.5 51.5t-38.5 112.5
q0 31 8 66l32 141q7 32 7 46q0 29 -19 46t-67 28l14 61q50 10 76 25t37.5 36t20.5 58l39 157q12 48 34.5 81z" />
    <glyph glyph-name="bar" unicode="|" horiz-adv-x="234" 
d="M74 -112h-83l212 924h84z" />
    <glyph glyph-name="braceright" unicode="}" horiz-adv-x="345" 
d="M122.5 -101q-22.5 -33 -69 -52.5t-124.5 -19.5v54q48 0 72 12t35 34.5t23 72.5l40 160q14 55 54.5 85.5t104.5 41.5q-45 16 -74 41.5t-29 60.5q0 13 3 25l38 172q12 53 12 85q0 35 -17.5 54t-60.5 28l26 55q72 -9 110.5 -51.5t38.5 -112.5q0 -31 -8 -66l-32 -141
q-7 -31 -7 -46q0 -29 19 -46t67 -28l-14 -61q-50 -10 -76 -25t-37.5 -36t-20.5 -58l-39 -157q-12 -48 -34.5 -81z" />
    <glyph glyph-name="asciitilde" unicode="~" 
d="M533 324q-18 -48 -50 -74.5t-73 -26.5q-29 0 -51.5 11.5t-55.5 34.5q-26 19 -42.5 28t-35.5 9q-26 0 -45 -19.5t-29 -49.5h-47q0 57 18 101t49 68t70 24q30 0 54 -12t58 -35q25 -18 41.5 -27t33.5 -9q25 0 45.5 21.5t26.5 64.5h51q0 -61 -18 -109z" />
    <glyph glyph-name="exclamdown" unicode="&#xa1;" horiz-adv-x="390" 
d="M305.5 463.5q28.5 -28.5 28.5 -70.5t-28.5 -69.5t-73.5 -27.5q-46 0 -74.5 28t-28.5 69q0 42 28.5 70.5t73.5 28.5q46 0 74.5 -28.5zM234 250l-54 -468h-178l175 468h57z" />
    <glyph glyph-name="cent" unicode="&#xa2;" horiz-adv-x="640" 
d="M493 174h47q-29 -81 -90.5 -133t-154.5 -52h-12l-27 -116h-41l28 121q-80 16 -122.5 76.5t-42.5 141.5q0 72 33.5 141t98 115.5t154.5 53.5l24 101h41l-24 -100q79 -3 128 -43.5t49 -128.5h-152q1 10 1 29q0 72 -38 88l-86 -375q20 -5 42 -5q98 0 144 86zM226.5 164.5
q13.5 -34.5 42.5 -54.5l84 363q-40 -6 -72 -41t-50 -86.5t-18 -103.5q0 -43 13.5 -77.5z" />
    <glyph glyph-name="sterling" unicode="&#xa3;" horiz-adv-x="640" 
d="M406.5 560.5q-37.5 -24.5 -37.5 -65.5q0 -34 23 -46t53 -12h112l-12 -55h-122l-14 -61q-11 -47 -29 -90t-59 -93q21 -9 47.5 -16t50.5 -7q42 0 71 21t37 54h50q-1 -93 -41 -147t-119 -54q-41 0 -75.5 19.5t-67.5 66.5q-58 -86 -143 -86q-57 0 -90.5 32.5t-33.5 83.5
t34 85.5t84 34.5q60 0 101 -51q16 80 32 144l16 64h-113l12 55h113l5 21q29 122 100 190.5t161 68.5q45 0 84 -13l-33 -146q-21 13 -50 20t-57 7q-52 0 -89.5 -24.5zM185 74.5q20 17.5 28 46.5q-37 37 -75 37q-26 0 -41 -14.5t-15 -36.5t16 -36t41 -14q26 0 46 17.5z" />
    <glyph glyph-name="currency" unicode="&#xa4;" horiz-adv-x="640" 
d="M514.5 216q-24.5 -47 -65.5 -82l59 -102l-49 -32l-59 103q-49 -26 -104 -26q-63 0 -109 35l-117 -112l-40 38l119 115q-28 38 -28 95q0 51 24.5 99t66.5 82l-61 107l48 30l60 -106q50 26 104 26q62 0 106 -33l121 116l36 -33l-122 -117q35 -44 35 -105q0 -51 -24.5 -98z
M236 190.5q26 -26.5 70 -26.5q37 0 71 18.5t55 50t21 69.5q0 43 -26.5 70t-71.5 27q-38 0 -71.5 -19t-53.5 -51t-20 -70q0 -42 26 -68.5z" />
    <glyph glyph-name="yen" unicode="&#xa5;" horiz-adv-x="640" 
d="M718 700l-13 -53q-30 -4 -48 -12.5t-32 -22.5t-42 -48l-158 -194l-10 -43h127l-9 -42h-129l-21 -87h130l-10 -42h-131l-10 -42q-2 -12 -2 -18q0 -38 50 -41l42 -2l-13 -53h-353l13 53l32 2q61 5 74 59l10 42h-142l10 42h142l22 87h-144l9 42h145l5 20l-87 241
q-11 30 -23 42.5t-37 16.5l13 53h285l-13 -53q-29 0 -48 -12.5t-19 -35.5q0 -10 3 -19l50 -157l113 142q29 36 29 54q0 28 -74 28l13 53h251z" />
    <glyph glyph-name="brokenbar" unicode="&#xa6;" horiz-adv-x="235" 
d="M198 423h-83l88 389h84zM74 -112h-83l89 389h84z" />
    <glyph glyph-name="section" unicode="&#xa7;" horiz-adv-x="494" 
d="M241.5 556q13.5 -15 32.5 -24t57 -24q46 -17 75.5 -33.5t50.5 -45.5t21 -73t-21 -70t-59 -42q30 -37 30 -91q0 -74 -51 -119t-137 -45q-57 0 -106.5 20.5t-80 59t-31.5 90.5h152q-2 -18 -2 -26q0 -44 22.5 -70t61.5 -26q34 0 51.5 18t17.5 45q0 25 -14.5 41.5t-35.5 27
t-60 25.5q-45 17 -73.5 33t-48 44t-19.5 71t21 68t64 41q-35 37 -35 94q0 68 45.5 111.5t133.5 43.5q54 0 102 -17t78.5 -50.5t31.5 -80.5h-152l1 15q0 39 -20.5 62.5t-53.5 23.5q-30 0 -46 -18.5t-16 -42.5q0 -21 13.5 -36zM199 351.5q21 -16.5 63 -32.5q5 -3 10.5 -4.5
t9.5 -3.5q30 -11 50 -20t37 -22q6 14 6 28q0 32 -23 50.5t-68 35.5q-8 3 -40.5 15.5t-57.5 29.5q-8 -18 -8 -33q0 -27 21 -43.5z" />
    <glyph glyph-name="dieresis" unicode="&#xa8;" horiz-adv-x="351" 
d="M329 737.5q19 19.5 50 19.5t50 -19.5t19 -51.5q0 -33 -18.5 -52t-50.5 -19q-31 0 -50 19t-19 52q0 32 19 51.5zM120.5 737q18.5 19 50.5 19q31 0 49.5 -19t18.5 -51t-18.5 -51.5t-49.5 -19.5t-50 19.5t-19 51.5t18.5 51z" />
    <glyph glyph-name="copyright" unicode="&#xa9;" horiz-adv-x="829" 
d="M618.5 665q81.5 -46 129 -128.5t47.5 -186.5t-47.5 -186.5t-129 -128.5t-181.5 -46t-182.5 46t-130 128.5t-47.5 186.5t47.5 186.5t130 128.5t182.5 46t181.5 -46zM592.5 75q70.5 40 111 111.5t40.5 163.5q0 91 -41 163t-111 112t-155 40q-86 0 -156.5 -40t-112 -112
t-41.5 -163q0 -92 41 -163.5t112 -111.5t157 -40q85 0 155.5 40zM558 544.5q46 -35.5 50 -112.5h-132q-1 52 -12.5 76t-35.5 24q-33 0 -53.5 -39.5t-20.5 -101.5q0 -74 30 -117t86 -43q61 0 89 52h45q-18 -70 -64.5 -108t-113.5 -38q-57 0 -100 26t-66 72t-23 104
q0 65 28 120.5t77 88t109 32.5q61 0 107 -35.5z" />
    <glyph glyph-name="ordfeminine" unicode="&#xaa;" horiz-adv-x="512" 
d="M507 385l-12 -49q-23 -12 -49 -20t-47 -8q-32 0 -51 17t-23 49q-40 -70 -111 -70q-56 0 -89.5 40t-33.5 106q0 58 27.5 116.5t76.5 96t110 37.5q27 0 49 -9t36 -26l4 20l104 15l3 -4l-59 -255q-7 -30 -7 -41q0 -28 27 -28q22 0 45 13zM365 608q-1 19 -14 32t-32 13
q-29 0 -54 -27.5t-40 -69t-15 -79.5q0 -37 14.5 -57.5t41.5 -20.5q28 0 56 25z" />
    <glyph glyph-name="guillemotleft" unicode="&#xab;" horiz-adv-x="523" 
d="M158 261l53 -170l-47 -28l-146 186l13 52l218 186l42 -43zM382 261l53 -170l-47 -28l-146 186l13 52l218 186l42 -43z" />
    <glyph glyph-name="logicalnot" unicode="&#xac;" 
d="M393 104l30 131h-314l17 75h391l-47 -206h-77z" />
    <glyph glyph-name="registered" unicode="&#xae;" horiz-adv-x="531" 
d="M429.5 683.5q48.5 -27.5 77 -77t28.5 -111.5t-28.5 -111t-77 -76.5t-108.5 -27.5t-109 27.5t-77.5 76.5t-28.5 111t28.5 111.5t77.5 77t109 27.5t108.5 -27.5zM413.5 332.5q41.5 23.5 65.5 66t24 96.5t-24 97t-65.5 66.5t-92.5 23.5t-92.5 -23.5t-66 -66.5t-24.5 -97
t24.5 -96.5t66 -66t92.5 -23.5t92.5 23.5zM431 416v-24h-44q-11 13 -21 27l-43 61h-26v-46q0 -17 20 -22l4 -1v-19h-98v21l10 1q9 1 14.5 6.5t5.5 13.5v138q0 8 -5.5 13.5t-14.5 6.5l-10 1v21h111q37 0 58 -16.5t21 -42.5q0 -20 -12 -37.5t-35 -24.5l42 -57q12 -18 23 -20z
M353 517.5q13 13.5 13 29.5t-12 29.5t-35 13.5h-22v-86h23q20 0 33 13.5z" />
    <glyph glyph-name="macron" unicode="&#xaf;" horiz-adv-x="299" 
d="M401 700l-22 -95h-299l23 95h298z" />
    <glyph glyph-name="degree" unicode="&#xb0;" horiz-adv-x="456" 
d="M453 716.5q45 -38.5 45 -104.5q0 -52 -28 -95t-77.5 -67.5t-112.5 -24.5q-79 0 -123.5 39t-44.5 105q0 52 27.5 94.5t77 67t111.5 24.5q80 0 125 -38.5zM337 520.5q20 49.5 20 124.5q0 36 -7.5 50t-26.5 14q-30 0 -50 -49t-20 -125q0 -37 7 -50.5t27 -13.5q30 0 50 49.5z
" />
    <glyph glyph-name="plusminus" unicode="&#xb1;" 
d="M555 422h-174l-43 -184h-63l43 184h-175l14 61h175l43 185h63l-43 -185h174zM483 117h-412l14 61h412z" />
    <glyph glyph-name="uni00B2" unicode="&#xb2;" horiz-adv-x="360" 
d="M50 313l42 33l32 25q57 45 86 70.5t48 55t19 61.5q0 29 -15.5 45.5t-41.5 16.5q-57 0 -98 -69l-33 20q28 61 75 95t103 34q52 0 85 -30.5t33 -77.5q0 -39 -24 -74.5t-56 -62.5t-81 -62q-16 -10 -30 -21l-23 -17h200l-22 -91h-311z" />
    <glyph glyph-name="uni00B3" unicode="&#xb3;" horiz-adv-x="360" 
d="M367.5 546.5q-31.5 -28.5 -90.5 -43.5q42 -14 65.5 -42t23.5 -67t-21 -70.5t-58 -49t-83 -17.5q-66 0 -107.5 34.5t-46.5 93.5h116q-1 -7 -1 -21q0 -32 12.5 -50t34.5 -18q21 0 35 18.5t14 47.5q0 42 -34 68t-89 28l11 41q64 14 101.5 33.5t37.5 53.5q0 19 -12 29.5
t-34 10.5q-27 0 -56 -14.5t-51 -39.5l-30 27q30 47 79.5 74t102.5 27q50 0 81 -24t31 -64q0 -37 -31.5 -65.5z" />
    <glyph glyph-name="acute" unicode="&#xb4;" horiz-adv-x="232" 
d="M205 756h142l-181 -161h-88z" />
    <glyph glyph-name="paragraph" unicode="&#xb6;" horiz-adv-x="592" 
d="M662 671l-29 -2q-65 -5 -79 -65l-170 -735h-54l187 807h-59l-187 -807h-53l109 474h-33q-60 0 -102.5 22t-64 58.5t-21.5 78.5q0 50 28 95.5t83 74t132 28.5h320zM404 676q-50 -5 -84.5 -32.5t-51.5 -67.5t-17 -82q0 -48 22 -84t60 -43z" />
    <glyph glyph-name="periodcentered" unicode="&#xb7;" horiz-adv-x="301" 
d="M117.5 319.5q-28.5 28.5 -28.5 70.5t28.5 69.5t73.5 27.5q46 0 74.5 -28t28.5 -69q0 -42 -28.5 -70.5t-73.5 -28.5q-46 0 -74.5 28.5z" />
    <glyph glyph-name="cedilla" unicode="&#xb8;" horiz-adv-x="212" 
d="M99.5 -68q24.5 -18 24.5 -49q0 -39 -32.5 -67.5t-84.5 -28.5q-32 0 -60 11.5t-46 30.5l34 41q32 -34 70 -34q27 0 44.5 13t17.5 32q0 41 -91 40l34 80h36l-14 -49q43 -2 67.5 -20z" />
    <glyph glyph-name="uni00B9" unicode="&#xb9;" horiz-adv-x="360" 
d="M346 308l-10 -44h-306l10 44l77 3q13 1 22 9t12 20l63 278q-21 -7 -47 -10.5t-44 -3.5l10 41q43 0 86 14t74 41h43l-80 -344q-5 -22 -5 -25q0 -11 6.5 -15t18.5 -5z" />
    <glyph glyph-name="ordmasculine" unicode="&#xba;" horiz-adv-x="459" 
d="M140.5 349.5q-43.5 45.5 -43.5 124.5q0 63 28.5 115t79 81.5t112.5 29.5q76 0 119.5 -46t43.5 -125q0 -63 -28.5 -114.5t-79 -81t-112.5 -29.5q-76 0 -119.5 45.5zM307 380q24 35 38.5 88.5t14.5 104.5q0 42 -10.5 64.5t-29.5 22.5q-26 0 -50 -35t-38.5 -88t-14.5 -104
q0 -42 10.5 -65t29.5 -23q26 0 50 35z" />
    <glyph glyph-name="guillemotright" unicode="&#xbb;" horiz-adv-x="525" 
d="M155 310l-53 170l47 28l146 -186l-13 -52l-218 -186l-42 43zM380 310l-53 170l47 28l146 -186l-13 -52l-218 -186l-42 43z" />
    <glyph glyph-name="onequarter" unicode="&#xbc;" horiz-adv-x="1026" 
d="M936 176l-21 -92h-70l-19 -82h-103l20 82h-184l20 86l253 258h92l-58 -252h70zM649 176h115l35 152zM281 0h-82l602 700h82zM388 307l-10 -44h-306l10 44l77 3q13 1 22 9t12 20l63 278q-21 -7 -47 -10.5t-44 -3.5l10 41q43 0 86 14t74 41h43l-80 -344q-5 -22 -5 -25
q0 -11 6.5 -15t18.5 -5z" />
    <glyph glyph-name="onehalf" unicode="&#xbd;" horiz-adv-x="1037" 
d="M607 48l42 33l32 25q57 45 86 70.5t48 55t19 61.5q0 29 -15.5 45.5t-41.5 16.5q-57 0 -98 -69l-33 20q28 61 75 95t103 34q52 0 85 -30.5t33 -77.5q0 -39 -24 -74.5t-56 -62.5t-81 -62q-16 -10 -30 -21l-23 -17h200l-22 -91h-311zM281 0h-82l602 700h82zM388 307l-10 -44
h-306l10 44l77 3q13 1 22 9t12 20l63 278q-21 -7 -47 -10.5t-44 -3.5l10 41q43 0 86 14t74 41h43l-80 -344q-5 -22 -5 -25q0 -11 6.5 -15t18.5 -5z" />
    <glyph glyph-name="threequarters" unicode="&#xbe;" horiz-adv-x="1099" 
d="M417.5 546.5q-31.5 -28.5 -90.5 -43.5q42 -14 65.5 -42t23.5 -67t-21 -70.5t-58 -49t-83 -17.5q-66 0 -107.5 34.5t-46.5 93.5h116q-1 -7 -1 -21q0 -32 12.5 -50t34.5 -18q21 0 35 18.5t14 47.5q0 42 -34 68t-89 28l11 41q64 14 101.5 33.5t37.5 53.5q0 19 -12 29.5
t-34 10.5q-27 0 -56 -14.5t-51 -39.5l-30 27q30 47 79.5 74t102.5 27q50 0 81 -24t31 -64q0 -37 -31.5 -65.5zM1009 176l-21 -92h-70l-19 -82h-103l20 82h-184l20 86l253 258h92l-58 -252h70zM722 176h115l35 152zM354 0h-82l602 700h82z" />
    <glyph glyph-name="questiondown" unicode="&#xbf;" horiz-adv-x="434" 
d="M349.5 463.5q28.5 -28.5 28.5 -70.5t-28.5 -69.5t-73.5 -27.5q-46 0 -74.5 28t-28.5 69q0 42 28.5 70.5t73.5 28.5q46 0 74.5 -28.5zM61.5 -161q-67.5 67 -67.5 153q0 50 20.5 81t50.5 46.5t73 28.5q48 15 70.5 28t27.5 40q2 10 2 32h35q35 -48 35 -94q0 -52 -37 -78
t-101 -42l-25 -6q-47 -12 -67.5 -21.5t-20.5 -28.5q0 -35 69.5 -51t175.5 -25l-37 -162q-136 32 -203.5 99z" />
    <glyph glyph-name="Agrave" unicode="&#xc0;" horiz-adv-x="766" 
d="M658.5 78.5q24.5 -18.5 51.5 -21.5l-13 -57h-329l13 57q42 0 65 17t23 48q0 5 -2 17l-14 90h-232l-56 -92q-10 -16 -10 -31q0 -22 23 -35.5t61 -13.5l-14 -57h-274l13 57q44 7 70.5 25t50.5 55l352 563h98l94 -573q5 -30 29.5 -48.5zM443 290l-38 244l-148 -244h186z
M356 937h117l43 -161h-76z" />
    <glyph glyph-name="Aacute" unicode="&#xc1;" horiz-adv-x="766" 
d="M658.5 78.5q24.5 -18.5 51.5 -21.5l-13 -57h-329l13 57q42 0 65 17t23 48q0 5 -2 17l-14 90h-232l-56 -92q-10 -16 -10 -31q0 -22 23 -35.5t61 -13.5l-14 -57h-274l13 57q44 7 70.5 25t50.5 55l352 563h98l94 -573q5 -30 29.5 -48.5zM443 290l-38 244l-148 -244h186z
M541 776h-88l127 162h142z" />
    <glyph glyph-name="Acircumflex" unicode="&#xc2;" horiz-adv-x="766" 
d="M658.5 78.5q24.5 -18.5 51.5 -21.5l-13 -57h-329l13 57q42 0 65 17t23 48q0 5 -2 17l-14 90h-232l-56 -92q-10 -16 -10 -31q0 -22 23 -35.5t61 -13.5l-14 -57h-274l13 57q44 7 70.5 25t50.5 55l352 563h98l94 -573q5 -30 29.5 -48.5zM443 290l-38 244l-148 -244h186z
M509 854l-95 -78h-108l182 176h69l99 -176h-89z" />
    <glyph glyph-name="Atilde" unicode="&#xc3;" horiz-adv-x="766" 
d="M641 813.5q-29 -37.5 -74 -37.5q-21 0 -38.5 7.5t-38.5 21.5q-16 11 -27.5 16t-22.5 5q-17 0 -30.5 -12t-16.5 -33h-55q1 66 30 103.5t75 37.5q21 0 38 -7.5t38 -21.5q19 -11 29 -16t22 -5q17 0 30 12t16 36h55q-1 -69 -30 -106.5zM658.5 78.5q24.5 -18.5 51.5 -21.5
l-13 -57h-329l13 57q42 0 65 17t23 48q0 5 -2 17l-14 90h-232l-56 -92q-10 -16 -10 -31q0 -22 23 -35.5t61 -13.5l-14 -57h-274l13 57q44 7 70.5 25t50.5 55l352 563h98l94 -573q5 -30 29.5 -48.5zM443 290l-38 244l-148 -244h186z" />
    <glyph glyph-name="Adieresis" unicode="&#xc4;" horiz-adv-x="766" 
d="M562.5 898.5q18.5 19.5 50.5 19.5q31 0 49.5 -19.5t18.5 -51.5q0 -33 -19 -52t-51 -19q-30 0 -48.5 19t-18.5 51q0 33 18.5 52.5zM341.5 898q18.5 19 50.5 19q31 0 49 -19t18 -51q0 -33 -18 -52t-49 -19t-50 19.5t-19 51.5t18.5 51zM658.5 78.5q24.5 -18.5 51.5 -21.5
l-13 -57h-329l13 57q42 0 65 17t23 48q0 5 -2 17l-14 90h-232l-56 -92q-10 -16 -10 -31q0 -22 23 -35.5t61 -13.5l-14 -57h-274l13 57q44 7 70.5 25t50.5 55l352 563h98l94 -573q5 -30 29.5 -48.5zM443 290l-38 244l-148 -244h186z" />
    <glyph glyph-name="Aring" unicode="&#xc5;" horiz-adv-x="766" 
d="M428.5 922q28.5 28 70.5 28q44 0 72.5 -28t28.5 -72q0 -43 -28.5 -72t-72.5 -29q-42 0 -70.5 29t-28.5 72q0 44 28.5 72zM536.5 888.5q-14.5 15.5 -36.5 15.5q-23 0 -37 -15.5t-14 -38.5q0 -24 14 -39t37 -15q22 0 36.5 15.5t14.5 38.5t-14.5 38.5zM658.5 78.5
q24.5 -18.5 51.5 -21.5l-13 -57h-329l13 57q42 0 65 17t23 48q0 5 -2 17l-14 90h-232l-56 -92q-10 -16 -10 -31q0 -22 23 -35.5t61 -13.5l-14 -57h-274l13 57q44 7 70.5 25t50.5 55l352 563h98l94 -573q5 -30 29.5 -48.5zM443 290l-38 244l-148 -244h186z" />
    <glyph glyph-name="AE" unicode="&#xc6;" horiz-adv-x="1071" 
d="M981 500v14q0 63 -33.5 96.5t-98.5 33.5h-101l-60 -259h60q50 0 77.5 26.5t40.5 78.5h57l-62 -268h-58q5 19 5 41q0 33 -18 49t-57 16h-58l-48 -207q-3 -12 -3 -21q0 -43 50 -43h52q76 0 134.5 48t93.5 133h58l-76 -238h-577l12 53l23 2q61 6 73 59l24 105h-248l-71 -86
q-18 -22 -18 -42q0 -19 22 -28.5t61 -9.5l-12 -53h-274l12 53q33 4 60.5 23t60.5 58l379 446q18 21 18 35q0 25 -59 30l-32 2l13 53h685l-46 -200h-61zM590 636l-297 -356h213z" />
    <glyph glyph-name="Ccedilla" unicode="&#xc7;" horiz-adv-x="698" 
d="M530.5 162q54.5 40 86.5 111h49q-27 -131 -110 -211t-212 -80q-21 0 -31 1l-9 -31q43 -2 67.5 -20t24.5 -49q0 -39 -32.5 -67.5t-84.5 -28.5q-32 0 -60 11.5t-46 30.5l34 41q32 -34 70 -34q27 0 44.5 13t17.5 32q0 41 -91 40l29 68q-104 21 -158.5 103t-54.5 193
q0 105 47.5 205t137 163.5t209.5 63.5q116 0 183.5 -63t70.5 -185h-185q3 29 3 55q0 65 -22 100.5t-73 35.5q-59 0 -109 -48t-79 -122.5t-29 -150.5q0 -94 47 -155.5t138 -61.5q73 0 127.5 40z" />
    <glyph glyph-name="Egrave" unicode="&#xc8;" horiz-adv-x="688" 
d="M598 500v14q0 63 -33.5 96.5t-98.5 33.5h-101l-60 -259h60q50 0 77.5 26.5t40.5 78.5h57l-62 -268h-58q5 19 5 41q0 33 -18 49t-57 16h-58l-48 -207q-3 -12 -3 -21q0 -43 50 -43h52q76 0 134.5 48t93.5 133h58l-76 -238h-577l13 53l23 2q27 2 47 17t26 42l109 467
q4 16 4 26q0 35 -50 38l-33 2l13 53h577l-46 -200h-61zM329 937h117l43 -161h-76z" />
    <glyph glyph-name="Eacute" unicode="&#xc9;" horiz-adv-x="688" 
d="M598 500v14q0 63 -33.5 96.5t-98.5 33.5h-101l-60 -259h60q50 0 77.5 26.5t40.5 78.5h57l-62 -268h-58q5 19 5 41q0 33 -18 49t-57 16h-58l-48 -207q-3 -12 -3 -21q0 -43 50 -43h52q76 0 134.5 48t93.5 133h58l-76 -238h-577l13 53l23 2q27 2 47 17t26 42l109 467
q4 16 4 26q0 35 -50 38l-33 2l13 53h577l-46 -200h-61zM473 776h-88l127 162h142z" />
    <glyph glyph-name="Ecircumflex" unicode="&#xca;" horiz-adv-x="688" 
d="M598 500v14q0 63 -33.5 96.5t-98.5 33.5h-101l-60 -259h60q50 0 77.5 26.5t40.5 78.5h57l-62 -268h-58q5 19 5 41q0 33 -18 49t-57 16h-58l-48 -207q-3 -12 -3 -21q0 -43 50 -43h52q76 0 134.5 48t93.5 133h58l-76 -238h-577l13 53l23 2q27 2 47 17t26 42l109 467
q4 16 4 26q0 35 -50 38l-33 2l13 53h577l-46 -200h-61zM458 854l-95 -78h-108l182 176h69l99 -176h-89z" />
    <glyph glyph-name="Edieresis" unicode="&#xcb;" horiz-adv-x="688" 
d="M598 500v14q0 63 -33.5 96.5t-98.5 33.5h-101l-60 -259h60q50 0 77.5 26.5t40.5 78.5h57l-62 -268h-58q5 19 5 41q0 33 -18 49t-57 16h-58l-48 -207q-3 -12 -3 -21q0 -43 50 -43h52q76 0 134.5 48t93.5 133h58l-76 -238h-577l13 53l23 2q27 2 47 17t26 42l109 467
q4 16 4 26q0 35 -50 38l-33 2l13 53h577l-46 -200h-61zM504.5 898.5q18.5 19.5 50.5 19.5q31 0 49.5 -19.5t18.5 -51.5q0 -33 -19 -52t-51 -19q-30 0 -48.5 19t-18.5 51q0 33 18.5 52.5zM283.5 898q18.5 19 50.5 19q31 0 49 -19t18 -51q0 -33 -18 -52t-49 -19t-50 19.5
t-19 51.5t18.5 51z" />
    <glyph glyph-name="Igrave" unicode="&#xcc;" horiz-adv-x="414" 
d="M250 96q0 -19 14 -29.5t36 -11.5l42 -2l-12 -53h-354l13 53l32 2q29 2 48 16.5t26 42.5l109 468q3 14 3 22q0 39 -49 41l-43 2l13 53h354l-13 -53l-33 -2q-28 -2 -47 -16.5t-26 -42.5l-109 -464q-4 -18 -4 -26zM194 937h117l43 -161h-76z" />
    <glyph glyph-name="Iacute" unicode="&#xcd;" horiz-adv-x="414" 
d="M250 96q0 -19 14 -29.5t36 -11.5l42 -2l-12 -53h-354l13 53l32 2q29 2 48 16.5t26 42.5l109 468q3 14 3 22q0 39 -49 41l-43 2l13 53h354l-13 -53l-33 -2q-28 -2 -47 -16.5t-26 -42.5l-109 -464q-4 -18 -4 -26zM361 776h-88l127 162h142z" />
    <glyph glyph-name="Icircumflex" unicode="&#xce;" horiz-adv-x="412" 
d="M249 96q0 -19 14 -29.5t36 -11.5l42 -2l-12 -53h-354l13 53l32 2q29 2 48 16.5t26 42.5l109 468q3 14 3 22q0 39 -49 41l-43 2l13 53h354l-13 -53l-33 -2q-28 -2 -47 -16.5t-26 -42.5l-109 -464q-4 -18 -4 -26zM349 854l-95 -78h-108l182 176h69l99 -176h-89z" />
    <glyph glyph-name="Idieresis" unicode="&#xcf;" horiz-adv-x="369" 
d="M234 96q0 -19 14 -29.5t36 -11.5l42 -2l-12 -53h-354l13 53l32 2q29 2 48 16.5t26 42.5l109 468q3 14 3 22q0 39 -49 41l-43 2l13 53h354l-13 -53l-33 -2q-28 -2 -47 -16.5t-26 -42.5l-109 -464q-4 -18 -4 -26zM376.5 898.5q18.5 19.5 50.5 19.5q31 0 49.5 -19.5
t18.5 -51.5q0 -33 -19 -52t-51 -19q-30 0 -48.5 19t-18.5 51q0 33 18.5 52.5zM155.5 898q18.5 19 50.5 19q31 0 49 -19t18 -51q0 -33 -18 -52t-49 -19t-50 19.5t-19 51.5t18.5 51z" />
    <glyph glyph-name="Eth" unicode="&#xd0;" horiz-adv-x="778" 
d="M613 660q70 -40 107 -107.5t37 -149.5q0 -104 -54.5 -196.5t-151.5 -149.5t-220 -57h-355l13 53l23 2q27 2 47 17t26 42l49 209h-90l12 54h90l48 204q4 16 4 26q0 35 -50 38l-33 2l13 53h319q96 0 166 -40zM454 102q59 45 93.5 122.5t34.5 169.5q0 71 -21.5 128
t-61.5 89.5t-95 32.5h-39l-62 -267h107l-12 -54h-107l-47 -202q-3 -12 -3 -21q0 -43 50 -43h34q70 0 129 45z" />
    <glyph glyph-name="Ntilde" unicode="&#xd1;" horiz-adv-x="795" 
d="M877 700l-13 -53l-25 -2q-34 -3 -55.5 -24t-29.5 -55l-131 -566h-60l-281 520l-88 -378q-5 -21 -5 -31q0 -24 14 -39.5t37 -16.5l47 -2l-13 -53h-278l12 53l27 2q28 2 53 24.5t32 54.5l101 440l-12 21q-17 29 -38 39t-56 13l13 53h237l242 -454l74 320q3 12 3 24
q0 24 -14 39t-37 16l-47 2l13 53h278zM640 813.5q-29 -37.5 -74 -37.5q-21 0 -38.5 7.5t-38.5 21.5q-16 11 -27.5 16t-22.5 5q-17 0 -30.5 -12t-16.5 -33h-55q1 66 30 103.5t75 37.5q21 0 38 -7.5t38 -21.5q19 -11 29 -16t22 -5q17 0 30 12t16 36h55q-1 -69 -30 -106.5z" />
    <glyph glyph-name="Ograve" unicode="&#xd2;" horiz-adv-x="804" 
d="M208 25q-71 43 -106 116t-35 161q0 105 49 200.5t140 155t211 59.5q102 0 172.5 -43t105.5 -116t35 -161q0 -105 -49 -200.5t-140 -155t-210 -59.5q-102 0 -173 43zM497.5 96q50.5 57 78.5 147t28 187q0 107 -35.5 169t-102.5 62q-65 0 -116.5 -56.5t-79.5 -146.5
t-28 -186q0 -107 36 -170t104 -63q65 0 115.5 57zM362 937h117l43 -161h-76z" />
    <glyph glyph-name="Oacute" unicode="&#xd3;" horiz-adv-x="804" 
d="M208 25q-71 43 -106 116t-35 161q0 105 49 200.5t140 155t211 59.5q102 0 172.5 -43t105.5 -116t35 -161q0 -105 -49 -200.5t-140 -155t-210 -59.5q-102 0 -173 43zM497.5 96q50.5 57 78.5 147t28 187q0 107 -35.5 169t-102.5 62q-65 0 -116.5 -56.5t-79.5 -146.5
t-28 -186q0 -107 36 -170t104 -63q65 0 115.5 57zM522 776h-88l127 162h142z" />
    <glyph glyph-name="Ocircumflex" unicode="&#xd4;" horiz-adv-x="804" 
d="M208 25q-71 43 -106 116t-35 161q0 105 49 200.5t140 155t211 59.5q102 0 172.5 -43t105.5 -116t35 -161q0 -105 -49 -200.5t-140 -155t-210 -59.5q-102 0 -173 43zM497.5 96q50.5 57 78.5 147t28 187q0 107 -35.5 169t-102.5 62q-65 0 -116.5 -56.5t-79.5 -146.5
t-28 -186q0 -107 36 -170t104 -63q65 0 115.5 57zM521 854l-95 -78h-108l182 176h69l99 -176h-89z" />
    <glyph glyph-name="Otilde" unicode="&#xd5;" horiz-adv-x="804" 
d="M208 25q-71 43 -106 116t-35 161q0 105 49 200.5t140 155t211 59.5q102 0 172.5 -43t105.5 -116t35 -161q0 -105 -49 -200.5t-140 -155t-210 -59.5q-102 0 -173 43zM497.5 96q50.5 57 78.5 147t28 187q0 107 -35.5 169t-102.5 62q-65 0 -116.5 -56.5t-79.5 -146.5
t-28 -186q0 -107 36 -170t104 -63q65 0 115.5 57zM655 813.5q-29 -37.5 -74 -37.5q-21 0 -38.5 7.5t-38.5 21.5q-16 11 -27.5 16t-22.5 5q-17 0 -30.5 -12t-16.5 -33h-55q1 66 30 103.5t75 37.5q21 0 38 -7.5t38 -21.5q19 -11 29 -16t22 -5q17 0 30 12t16 36h55
q-1 -69 -30 -106.5z" />
    <glyph glyph-name="Odieresis" unicode="&#xd6;" horiz-adv-x="804" 
d="M208 25q-71 43 -106 116t-35 161q0 105 49 200.5t140 155t211 59.5q102 0 172.5 -43t105.5 -116t35 -161q0 -105 -49 -200.5t-140 -155t-210 -59.5q-102 0 -173 43zM497.5 96q50.5 57 78.5 147t28 187q0 107 -35.5 169t-102.5 62q-65 0 -116.5 -56.5t-79.5 -146.5
t-28 -186q0 -107 36 -170t104 -63q65 0 115.5 57zM565.5 898.5q18.5 19.5 50.5 19.5q31 0 49.5 -19.5t18.5 -51.5q0 -33 -19 -52t-51 -19q-30 0 -48.5 19t-18.5 51q0 33 18.5 52.5zM344.5 898q18.5 19 50.5 19q31 0 49 -19t18 -51q0 -33 -18 -52t-49 -19t-50 19.5t-19 51.5
t18.5 51z" />
    <glyph glyph-name="multiply" unicode="&#xd7;" 
d="M405 101l-99 127l-155 -125l-36 48l155 125l-98 129l49 41l99 -129l154 125l37 -47l-154 -125l98 -128z" />
    <glyph glyph-name="Oslash" unicode="&#xd8;" horiz-adv-x="804" 
d="M755 534.5q25 -63.5 25 -137.5q0 -105 -49 -200.5t-140 -155t-210 -59.5q-103 0 -178 46l-43 -55l-39 31l42 55q-47 43 -71.5 106.5t-24.5 136.5q0 105 49 200.5t140 155t211 59.5q99 0 175 -45l44 57l40 -31l-44 -56q48 -44 73 -107.5zM252 172l323 415q-36 74 -109 74
q-65 0 -116.5 -56.5t-79.5 -146.5t-28 -186q0 -57 10 -100zM497.5 96q50.5 57 78.5 147t28 187q0 58 -10 99l-323 -414q18 -37 46 -56.5t65 -19.5q65 0 115.5 57z" />
    <glyph glyph-name="Ugrave" unicode="&#xd9;" horiz-adv-x="802" 
d="M884 700l-12 -53l-26 -2q-34 -3 -55.5 -24t-29.5 -55l-75 -324q-30 -130 -112.5 -195t-193.5 -65q-74 0 -135 28.5t-96.5 83t-35.5 129.5q0 32 8 67l70 296q2 8 2 17q0 18 -12.5 29.5t-37.5 12.5l-33 2l14 53h335l-13 -53l-26 -2q-28 -2 -46.5 -15.5t-25.5 -43.5
l-75 -324q-7 -31 -7 -58q0 -69 40 -107t106 -38q71 0 124 45t74 133l79 329q3 15 3 22q0 25 -14.5 40.5t-37.5 16.5l-47 2l13 53h278zM393 937h117l43 -161h-76z" />
    <glyph glyph-name="Uacute" unicode="&#xda;" horiz-adv-x="802" 
d="M884 700l-12 -53l-26 -2q-34 -3 -55.5 -24t-29.5 -55l-75 -324q-30 -130 -112.5 -195t-193.5 -65q-74 0 -135 28.5t-96.5 83t-35.5 129.5q0 32 8 67l70 296q2 8 2 17q0 18 -12.5 29.5t-37.5 12.5l-33 2l14 53h335l-13 -53l-26 -2q-28 -2 -46.5 -15.5t-25.5 -43.5
l-75 -324q-7 -31 -7 -58q0 -69 40 -107t106 -38q71 0 124 45t74 133l79 329q3 15 3 22q0 25 -14.5 40.5t-37.5 16.5l-47 2l13 53h278zM551 776h-88l127 162h142z" />
    <glyph glyph-name="Ucircumflex" unicode="&#xdb;" horiz-adv-x="802" 
d="M884 700l-12 -53l-26 -2q-34 -3 -55.5 -24t-29.5 -55l-75 -324q-30 -130 -112.5 -195t-193.5 -65q-74 0 -135 28.5t-96.5 83t-35.5 129.5q0 32 8 67l70 296q2 8 2 17q0 18 -12.5 29.5t-37.5 12.5l-33 2l14 53h335l-13 -53l-26 -2q-28 -2 -46.5 -15.5t-25.5 -43.5
l-75 -324q-7 -31 -7 -58q0 -69 40 -107t106 -38q71 0 124 45t74 133l79 329q3 15 3 22q0 25 -14.5 40.5t-37.5 16.5l-47 2l13 53h278zM545 854l-95 -78h-108l182 176h69l99 -176h-89z" />
    <glyph glyph-name="Udieresis" unicode="&#xdc;" horiz-adv-x="802" 
d="M884 700l-12 -53l-26 -2q-34 -3 -55.5 -24t-29.5 -55l-75 -324q-30 -130 -112.5 -195t-193.5 -65q-74 0 -135 28.5t-96.5 83t-35.5 129.5q0 32 8 67l70 296q2 8 2 17q0 18 -12.5 29.5t-37.5 12.5l-33 2l14 53h335l-13 -53l-26 -2q-28 -2 -46.5 -15.5t-25.5 -43.5
l-75 -324q-7 -31 -7 -58q0 -69 40 -107t106 -38q71 0 124 45t74 133l79 329q3 15 3 22q0 25 -14.5 40.5t-37.5 16.5l-47 2l13 53h278zM590.5 898.5q18.5 19.5 50.5 19.5q31 0 49.5 -19.5t18.5 -51.5q0 -33 -19 -52t-51 -19q-30 0 -48.5 19t-18.5 51q0 33 18.5 52.5z
M369.5 898q18.5 19 50.5 19q31 0 49 -19t18 -51q0 -33 -18 -52t-49 -19t-50 19.5t-19 51.5t18.5 51z" />
    <glyph glyph-name="Yacute" unicode="&#xdd;" horiz-adv-x="697" 
d="M784 700l-12 -53q-46 -7 -74 -28t-64 -65l-200 -244l-44 -193q-3 -13 -3 -21q0 -19 12.5 -29.5t36.5 -11.5l43 -2l-13 -53h-354l13 53l33 2q28 2 47 16.5t26 42.5l40 173l-104 291q-22 61 -72 69l13 53h316l-13 -53q-35 0 -57 -15.5t-22 -40.5q0 -7 4 -21l69 -200
l144 185q23 29 23 49q0 21 -20.5 32t-59.5 11l13 53h279zM496 776h-88l127 162h142z" />
    <glyph glyph-name="Thorn" unicode="&#xde;" horiz-adv-x="672" 
d="M549.5 546q52.5 -24 78.5 -64t26 -87q0 -58 -37 -112t-109.5 -88t-171.5 -34h-82l-12 -47q-2 -12 -2 -16q0 -40 50 -43l42 -2l-12 -53h-344l13 53l22 2q62 10 74 59l110 472q2 6 2 18q0 38 -49 41l-33 2l13 53h334l-13 -53l-23 -2q-29 -2 -48.5 -16.5t-24.5 -42.5l-4 -16
h74q74 0 126.5 -24zM397 243.5q41 26.5 62.5 68t21.5 84.5q0 50 -30 84t-86 34h-29l-69 -297h33q56 0 97 26.5z" />
    <glyph glyph-name="germandbls" unicode="&#xdf;" horiz-adv-x="647" 
d="M130 533q20 85 88.5 134.5t191.5 49.5q104 0 164 -36t60 -101q0 -38 -20.5 -62t-48.5 -37t-73 -27q-46 -15 -66 -26t-20 -31q0 -17 15 -31t48 -37q37 -25 60 -45.5t40 -51t17 -70.5q0 -47 -24.5 -86.5t-69.5 -63t-103 -23.5q-65 0 -113 28t-59 78h140q3 -25 18 -41.5
t39 -16.5q27 0 43.5 17t16.5 44q0 31 -20.5 54t-62.5 53q-49 36 -74 65t-25 73q0 39 21 62t64 50q47 28 71 55t24 76q0 43 -21 65.5t-57 22.5q-82 0 -108 -112l-130 -562h-150z" />
    <glyph glyph-name="agrave" unicode="&#xe0;" horiz-adv-x="625" 
d="M591 87l-14 -56q-30 -16 -64.5 -26.5t-62.5 -10.5q-49 0 -73.5 28.5t-24.5 78.5q-21 -48 -59 -80t-96 -32q-78 0 -121.5 56t-43.5 140q0 78 37 157t103 130t147 51q39 0 70.5 -13.5t51.5 -35.5l6 28l138 21l-81 -350q-10 -42 -10 -58q0 -42 42 -42q24 0 55 14zM408 402
q-7 27 -24 46t-46 19q-41 0 -75.5 -38t-54.5 -95.5t-20 -111.5q0 -49 19.5 -80t59.5 -31q42 0 81 37zM218 756h117l43 -161h-76z" />
    <glyph glyph-name="aacute" unicode="&#xe1;" horiz-adv-x="625" 
d="M591 87l-14 -56q-30 -16 -64.5 -26.5t-62.5 -10.5q-49 0 -73.5 28.5t-24.5 78.5q-21 -48 -59 -80t-96 -32q-78 0 -121.5 56t-43.5 140q0 78 37 157t103 130t147 51q39 0 70.5 -13.5t51.5 -35.5l6 28l138 21l-81 -350q-10 -42 -10 -58q0 -42 42 -42q24 0 55 14zM408 402
q-7 27 -24 46t-46 19q-41 0 -75.5 -38t-54.5 -95.5t-20 -111.5q0 -49 19.5 -80t59.5 -31q42 0 81 37zM422 756h142l-181 -161h-88z" />
    <glyph glyph-name="acircumflex" unicode="&#xe2;" horiz-adv-x="625" 
d="M591 87l-14 -56q-30 -16 -64.5 -26.5t-62.5 -10.5q-49 0 -73.5 28.5t-24.5 78.5q-21 -48 -59 -80t-96 -32q-78 0 -121.5 56t-43.5 140q0 78 37 157t103 130t147 51q39 0 70.5 -13.5t51.5 -35.5l6 28l138 21l-81 -350q-10 -42 -10 -58q0 -42 42 -42q24 0 55 14zM408 402
q-7 27 -24 46t-46 19q-41 0 -75.5 -38t-54.5 -95.5t-20 -111.5q0 -49 19.5 -80t59.5 -31q42 0 81 37zM378 771h69l99 -176h-89l-58 78l-95 -78h-108z" />
    <glyph glyph-name="atilde" unicode="&#xe3;" horiz-adv-x="625" 
d="M591 87l-14 -56q-30 -16 -64.5 -26.5t-62.5 -10.5q-49 0 -73.5 28.5t-24.5 78.5q-21 -48 -59 -80t-96 -32q-78 0 -121.5 56t-43.5 140q0 78 37 157t103 130t147 51q39 0 70.5 -13.5t51.5 -35.5l6 28l138 21l-81 -350q-10 -42 -10 -58q0 -42 42 -42q24 0 55 14zM408 402
q-7 27 -24 46t-46 19q-41 0 -75.5 -38t-54.5 -95.5t-20 -111.5q0 -49 19.5 -80t59.5 -31q42 0 81 37zM515 632.5q-29 -37.5 -74 -37.5q-21 0 -38.5 7.5t-39.5 21.5q-16 11 -27.5 16t-22.5 5q-17 0 -30.5 -12t-16.5 -33h-55q1 66 30 103.5t75 37.5q21 0 38.5 -7.5t38.5 -21.5
q16 -11 27.5 -16t23.5 -5q17 0 30 12t16 36h55q-1 -69 -30 -106.5z" />
    <glyph glyph-name="adieresis" unicode="&#xe4;" horiz-adv-x="625" 
d="M591 87l-14 -56q-30 -16 -64.5 -26.5t-62.5 -10.5q-49 0 -73.5 28.5t-24.5 78.5q-21 -48 -59 -80t-96 -32q-78 0 -121.5 56t-43.5 140q0 78 37 157t103 130t147 51q39 0 70.5 -13.5t51.5 -35.5l6 28l138 21l-81 -350q-10 -42 -10 -58q0 -42 42 -42q24 0 55 14zM408 402
q-7 27 -24 46t-46 19q-41 0 -75.5 -38t-54.5 -95.5t-20 -111.5q0 -49 19.5 -80t59.5 -31q42 0 81 37zM441 737.5q19 19.5 50 19.5t50 -19.5t19 -51.5q0 -33 -18.5 -52t-50.5 -19q-31 0 -50 19t-19 52q0 32 19 51.5zM232.5 737q18.5 19 50.5 19q31 0 49.5 -19t18.5 -51
t-18.5 -51.5t-49.5 -19.5t-50 19.5t-19 51.5t18.5 51z" />
    <glyph glyph-name="aring" unicode="&#xe5;" horiz-adv-x="625" 
d="M591 87l-14 -56q-30 -16 -64.5 -26.5t-62.5 -10.5q-49 0 -73.5 28.5t-24.5 78.5q-21 -48 -59 -80t-96 -32q-78 0 -121.5 56t-43.5 140q0 78 37 157t103 130t147 51q39 0 70.5 -13.5t51.5 -35.5l6 28l138 21l-81 -350q-10 -42 -10 -58q0 -42 42 -42q24 0 55 14zM408 402
q-7 27 -24 46t-46 19q-41 0 -75.5 -38t-54.5 -95.5t-20 -111.5q0 -49 19.5 -80t59.5 -31q42 0 81 37zM296.5 804.5q34.5 33.5 86.5 33.5t87 -33.5t35 -86.5q0 -54 -34.5 -88.5t-87.5 -34.5t-87 34.5t-34 88.5q0 53 34.5 86.5zM420.5 754q-14.5 14 -37.5 14t-37 -14t-14 -37
t14 -38.5t37 -15.5t37.5 15.5t14.5 38.5t-14.5 37z" />
    <glyph glyph-name="ae" unicode="&#xe6;" horiz-adv-x="798" 
d="M656 118.5q31 22.5 51 55.5h47q-25 -80 -85.5 -132.5t-146.5 -52.5q-65 0 -111.5 32t-68.5 87q-41 -59 -97 -89t-108 -30q-53 0 -84.5 30t-31.5 85q0 57 32 93.5t70.5 53t90.5 31.5l31 9q52 16 90 42.5t38 82.5q0 31 -15 46t-42 15q-80 0 -103 -136h-153
q20 83 88.5 132.5t165.5 49.5q61 0 92.5 -19.5t45.5 -53.5q38 36 79.5 54.5t93.5 18.5q72 0 114 -33t42 -86q0 -74 -84 -116t-231 -65q0 -57 31 -92t84 -35q44 0 75 22.5zM537 448.5q-28 -28.5 -46 -75.5t-23 -102q178 38 178 149q0 27 -11.5 42t-35.5 15q-34 0 -62 -28.5z
M291 103q23 14 40 36q-8 22 -8 55q0 17 4 45l6 43q-14 -8 -31.5 -14t-23.5 -8l-19 -7q-29 -10 -53.5 -31t-24.5 -70q0 -35 15.5 -49t42.5 -14q29 0 52 14z" />
    <glyph glyph-name="ccedilla" unicode="&#xe7;" horiz-adv-x="503" 
d="M334 341q5 33 5 64q0 38 -10.5 55t-31.5 17q-32 0 -60.5 -34.5t-45.5 -88.5t-17 -109q0 -72 31.5 -110.5t86.5 -38.5q80 0 126 78h46q-25 -82 -85 -133.5t-147 -51.5h-4l-11 -37q43 -2 67.5 -20t24.5 -49q0 -39 -32.5 -67.5t-84.5 -28.5q-32 0 -60 11.5t-46 30.5l34 41
q32 -34 70 -34q27 0 44.5 13t17.5 32q0 41 -91 40l30 71q-73 13 -114.5 67t-41.5 138q0 83 39.5 158.5t107.5 121.5t147 46q70 0 114 -40t44 -126l-1 -16h-152z" />
    <glyph glyph-name="egrave" unicode="&#xe8;" horiz-adv-x="509" 
d="M419 174h46q-25 -82 -85.5 -133.5t-147.5 -51.5q-91 0 -144 57t-53 153q0 84 40 158.5t109 120t153 45.5q72 0 114 -33t42 -86q0 -74 -84 -116t-232 -65q0 -56 31.5 -91.5t84.5 -35.5q78 0 126 78zM248 448.5q-28 -28.5 -46 -75.5t-23 -102q179 38 179 149q0 57 -48 57
q-34 0 -62 -28.5zM223 756h117l43 -161h-76z" />
    <glyph glyph-name="eacute" unicode="&#xe9;" horiz-adv-x="509" 
d="M419 174h46q-25 -82 -85.5 -133.5t-147.5 -51.5q-91 0 -144 57t-53 153q0 84 40 158.5t109 120t153 45.5q72 0 114 -33t42 -86q0 -74 -84 -116t-232 -65q0 -56 31.5 -91.5t84.5 -35.5q78 0 126 78zM248 448.5q-28 -28.5 -46 -75.5t-23 -102q179 38 179 149q0 57 -48 57
q-34 0 -62 -28.5zM407 756h142l-181 -161h-88z" />
    <glyph glyph-name="ecircumflex" unicode="&#xea;" horiz-adv-x="509" 
d="M419 174h46q-25 -82 -85.5 -133.5t-147.5 -51.5q-91 0 -144 57t-53 153q0 84 40 158.5t109 120t153 45.5q72 0 114 -33t42 -86q0 -74 -84 -116t-232 -65q0 -56 31.5 -91.5t84.5 -35.5q78 0 126 78zM248 448.5q-28 -28.5 -46 -75.5t-23 -102q179 38 179 149q0 57 -48 57
q-34 0 -62 -28.5zM334 771h69l99 -176h-89l-58 78l-95 -78h-108z" />
    <glyph glyph-name="edieresis" unicode="&#xeb;" horiz-adv-x="509" 
d="M419 174h46q-25 -82 -85.5 -133.5t-147.5 -51.5q-91 0 -144 57t-53 153q0 84 40 158.5t109 120t153 45.5q72 0 114 -33t42 -86q0 -74 -84 -116t-232 -65q0 -56 31.5 -91.5t84.5 -35.5q78 0 126 78zM248 448.5q-28 -28.5 -46 -75.5t-23 -102q179 38 179 149q0 57 -48 57
q-34 0 -62 -28.5zM415 737.5q19 19.5 50 19.5t50 -19.5t19 -51.5q0 -33 -18.5 -52t-50.5 -19q-31 0 -50 19t-19 52q0 32 19 51.5zM206.5 737q18.5 19 50.5 19q31 0 49.5 -19t18.5 -51t-18.5 -51.5t-49.5 -19.5t-50 19.5t-19 51.5t18.5 51z" />
    <glyph glyph-name="igrave" unicode="&#xec;" horiz-adv-x="334" 
d="M208 150q-5 -20 -5 -39q0 -43 40 -43q25 0 55 14l-12 -56q-32 -17 -67.5 -27t-66.5 -10q-100 0 -100 103q0 34 10 73l55 222q2 10 2 15q0 17 -11.5 26t-32.5 9h-13l12 51l225 35l-85 -350q-1 -3 -6 -23zM128 756h117l43 -161h-76z" />
    <glyph glyph-name="iacute" unicode="&#xed;" horiz-adv-x="334" 
d="M208 150q-5 -20 -5 -39q0 -43 40 -43q25 0 55 14l-12 -56q-32 -17 -67.5 -27t-66.5 -10q-100 0 -100 103q0 34 10 73l55 222q2 10 2 15q0 17 -11.5 26t-32.5 9h-13l12 51l225 35l-85 -350q-1 -3 -6 -23zM332 756h142l-181 -161h-88z" />
    <glyph glyph-name="icircumflex" unicode="&#xee;" horiz-adv-x="334" 
d="M208 150q-5 -20 -5 -39q0 -43 40 -43q25 0 55 14l-12 -56q-32 -17 -67.5 -27t-66.5 -10q-100 0 -100 103q0 34 10 73l55 222q2 10 2 15q0 17 -11.5 26t-32.5 9h-13l12 51l225 35l-85 -350q-1 -3 -6 -23zM234 771h69l99 -176h-89l-58 78l-95 -78h-108z" />
    <glyph glyph-name="idieresis" unicode="&#xef;" horiz-adv-x="334" 
d="M208 150q-5 -20 -5 -39q0 -43 40 -43q25 0 55 14l-12 -56q-32 -17 -67.5 -27t-66.5 -10q-100 0 -100 103q0 34 10 73l55 222q2 10 2 15q0 17 -11.5 26t-32.5 9h-13l12 51l225 35l-85 -350q-1 -3 -6 -23zM303 737.5q19 19.5 50 19.5t50 -19.5t19 -51.5q0 -33 -18.5 -52
t-50.5 -19q-31 0 -50 19t-19 52q0 32 19 51.5zM94.5 737q18.5 19 50.5 19q31 0 49.5 -19t18.5 -51t-18.5 -51.5t-49.5 -19.5t-50 19.5t-19 51.5t18.5 51z" />
    <glyph glyph-name="eth" unicode="&#xf0;" horiz-adv-x="642" 
d="M547.5 475.5q46.5 -89.5 46.5 -188.5q0 -84 -34.5 -151.5t-101 -107t-157.5 -39.5q-82 0 -137.5 31.5t-83 83t-27.5 111.5q0 62 27.5 112t74.5 79t105 29q89 0 164 -68q-18 118 -87 193l-60 -50l-35 40l54 46q-65 45 -154 51v53q125 -1 222 -49l85 71v-69l-35 -30
q87 -58 133.5 -147.5zM398.5 103.5q33.5 67.5 33.5 180.5q0 26 -3 41q-39 23 -82 23q-62 0 -98.5 -44t-36.5 -120q0 -63 25 -105.5t71 -42.5q57 0 90.5 67.5z" />
    <glyph glyph-name="ntilde" unicode="&#xf1;" horiz-adv-x="633" 
d="M599 87l-13 -56q-31 -17 -65 -27t-64 -10q-50 0 -77 26.5t-27 75.5q0 32 10 69l38 144q1 3 5.5 21t4.5 36q0 56 -47 56q-26 0 -56 -15.5t-46 -36.5l-84 -370h-150l89 387q2 12 2 17q0 35 -44 35h-13l12 51l208 33l-27 -121q84 121 187 121q55 0 88 -33t33 -95
q0 -37 -13 -86l-36 -136q-1 -4 -6 -22.5t-5 -34.5q0 -43 41 -43q24 0 55 14zM527 632.5q-29 -37.5 -74 -37.5q-21 0 -38.5 7.5t-39.5 21.5q-16 11 -27.5 16t-22.5 5q-17 0 -30.5 -12t-16.5 -33h-55q1 66 30 103.5t75 37.5q21 0 38.5 -7.5t38.5 -21.5q16 -11 27.5 -16
t23.5 -5q17 0 30 12t16 36h55q-1 -69 -30 -106.5z" />
    <glyph glyph-name="ograve" unicode="&#xf2;" horiz-adv-x="593" 
d="M96 52.5q-56 63.5 -56 164.5q0 86 38.5 155.5t106.5 110t152 40.5q106 0 163 -63.5t57 -166.5q0 -85 -38.5 -154.5t-106.5 -109.5t-153 -40q-107 0 -163 63.5zM326.5 85q33.5 49 53.5 123t20 145q0 56 -14.5 90t-44.5 34q-37 0 -70.5 -49t-54 -123t-20.5 -144
q0 -56 14.5 -90.5t45.5 -34.5q37 0 70.5 49zM223 756h117l43 -161h-76z" />
    <glyph glyph-name="oacute" unicode="&#xf3;" horiz-adv-x="593" 
d="M96 52.5q-56 63.5 -56 164.5q0 86 38.5 155.5t106.5 110t152 40.5q106 0 163 -63.5t57 -166.5q0 -85 -38.5 -154.5t-106.5 -109.5t-153 -40q-107 0 -163 63.5zM326.5 85q33.5 49 53.5 123t20 145q0 56 -14.5 90t-44.5 34q-37 0 -70.5 -49t-54 -123t-20.5 -144
q0 -56 14.5 -90.5t45.5 -34.5q37 0 70.5 49zM457 756h142l-181 -161h-88z" />
    <glyph glyph-name="ocircumflex" unicode="&#xf4;" horiz-adv-x="593" 
d="M96 52.5q-56 63.5 -56 164.5q0 86 38.5 155.5t106.5 110t152 40.5q106 0 163 -63.5t57 -166.5q0 -85 -38.5 -154.5t-106.5 -109.5t-153 -40q-107 0 -163 63.5zM326.5 85q33.5 49 53.5 123t20 145q0 56 -14.5 90t-44.5 34q-37 0 -70.5 -49t-54 -123t-20.5 -144
q0 -56 14.5 -90.5t45.5 -34.5q37 0 70.5 49zM368 771h69l99 -176h-89l-58 78l-95 -78h-108z" />
    <glyph glyph-name="otilde" unicode="&#xf5;" horiz-adv-x="593" 
d="M96 52.5q-56 63.5 -56 164.5q0 86 38.5 155.5t106.5 110t152 40.5q106 0 163 -63.5t57 -166.5q0 -85 -38.5 -154.5t-106.5 -109.5t-153 -40q-107 0 -163 63.5zM326.5 85q33.5 49 53.5 123t20 145q0 56 -14.5 90t-44.5 34q-37 0 -70.5 -49t-54 -123t-20.5 -144
q0 -56 14.5 -90.5t45.5 -34.5q37 0 70.5 49zM500 632.5q-29 -37.5 -74 -37.5q-21 0 -38.5 7.5t-39.5 21.5q-16 11 -27.5 16t-22.5 5q-17 0 -30.5 -12t-16.5 -33h-55q1 66 30 103.5t75 37.5q21 0 38.5 -7.5t38.5 -21.5q16 -11 27.5 -16t23.5 -5q17 0 30 12t16 36h55
q-1 -69 -30 -106.5z" />
    <glyph glyph-name="odieresis" unicode="&#xf6;" horiz-adv-x="593" 
d="M96 52.5q-56 63.5 -56 164.5q0 86 38.5 155.5t106.5 110t152 40.5q106 0 163 -63.5t57 -166.5q0 -85 -38.5 -154.5t-106.5 -109.5t-153 -40q-107 0 -163 63.5zM326.5 85q33.5 49 53.5 123t20 145q0 56 -14.5 90t-44.5 34q-37 0 -70.5 -49t-54 -123t-20.5 -144
q0 -56 14.5 -90.5t45.5 -34.5q37 0 70.5 49zM446 737.5q19 19.5 50 19.5t50 -19.5t19 -51.5q0 -33 -18.5 -52t-50.5 -19q-31 0 -50 19t-19 52q0 32 19 51.5zM237.5 737q18.5 19 50.5 19q31 0 49.5 -19t18.5 -51t-18.5 -51.5t-49.5 -19.5t-50 19.5t-19 51.5t18.5 51z" />
    <glyph glyph-name="divide" unicode="&#xf7;" 
d="M285.5 387.5q-24.5 24.5 -24.5 60.5q0 35 24.5 58.5t62.5 23.5q39 0 63 -23.5t24 -58.5t-24 -60t-62 -25q-39 0 -63.5 24.5zM513 242h-412l14 61h412zM217.5 44.5q-24.5 24.5 -24.5 60.5q0 35 24.5 58.5t62.5 23.5q39 0 63 -23.5t24 -58.5t-24 -60t-62 -25
q-39 0 -63.5 24.5z" />
    <glyph glyph-name="oslash" unicode="&#xf8;" horiz-adv-x="593" 
d="M557 293q0 -85 -38.5 -154.5t-106.5 -109.5t-153 -40q-68 0 -118 28l-34 -44l-34 25l34 43q-33 31 -50 76.5t-17 99.5q0 86 38.5 155.5t106.5 110t152 40.5q70 0 121 -30l36 46l33 -28l-34 -44q64 -63 64 -174zM196 156l199 256q-13 65 -54 65q-37 0 -70.5 -49t-54 -123
t-20.5 -144v-5zM325.5 84q33.5 48 54 121t20.5 143l-198 -253q15 -59 54 -59q36 0 69.5 48z" />
    <glyph glyph-name="ugrave" unicode="&#xf9;" horiz-adv-x="630" 
d="M596 87l-13 -56q-66 -37 -129 -37q-45 0 -71 25.5t-26 77.5q-37 -55 -77.5 -81.5t-90.5 -26.5q-60 0 -93.5 36.5t-33.5 101.5q0 36 11 80l44 179q2 8 2 17q0 34 -44 34h-13l13 51l224 35l-77 -320q-8 -30 -8 -50q0 -57 52 -57q22 0 45.5 10t40.5 27l83 367l155 23
l-81 -349q-1 -4 -5.5 -22.5t-4.5 -34.5q0 -44 42 -44q24 0 55 14zM237 756h117l43 -161h-76z" />
    <glyph glyph-name="uacute" unicode="&#xfa;" horiz-adv-x="630" 
d="M596 87l-13 -56q-66 -37 -129 -37q-45 0 -71 25.5t-26 77.5q-37 -55 -77.5 -81.5t-90.5 -26.5q-60 0 -93.5 36.5t-33.5 101.5q0 36 11 80l44 179q2 8 2 17q0 34 -44 34h-13l13 51l224 35l-77 -320q-8 -30 -8 -50q0 -57 52 -57q22 0 45.5 10t40.5 27l83 367l155 23
l-81 -349q-1 -4 -5.5 -22.5t-4.5 -34.5q0 -44 42 -44q24 0 55 14zM431 756h142l-181 -161h-88z" />
    <glyph glyph-name="ucircumflex" unicode="&#xfb;" horiz-adv-x="630" 
d="M596 87l-13 -56q-66 -37 -129 -37q-45 0 -71 25.5t-26 77.5q-37 -55 -77.5 -81.5t-90.5 -26.5q-60 0 -93.5 36.5t-33.5 101.5q0 36 11 80l44 179q2 8 2 17q0 34 -44 34h-13l13 51l224 35l-77 -320q-8 -30 -8 -50q0 -57 52 -57q22 0 45.5 10t40.5 27l83 367l155 23
l-81 -349q-1 -4 -5.5 -22.5t-4.5 -34.5q0 -44 42 -44q24 0 55 14zM372 771h69l99 -176h-89l-58 78l-95 -78h-108z" />
    <glyph glyph-name="udieresis" unicode="&#xfc;" horiz-adv-x="630" 
d="M596 87l-13 -56q-66 -37 -129 -37q-45 0 -71 25.5t-26 77.5q-37 -55 -77.5 -81.5t-90.5 -26.5q-60 0 -93.5 36.5t-33.5 101.5q0 36 11 80l44 179q2 8 2 17q0 34 -44 34h-13l13 51l224 35l-77 -320q-8 -30 -8 -50q0 -57 52 -57q22 0 45.5 10t40.5 27l83 367l155 23
l-81 -349q-1 -4 -5.5 -22.5t-4.5 -34.5q0 -44 42 -44q24 0 55 14zM443 737.5q19 19.5 50 19.5t50 -19.5t19 -51.5q0 -33 -18.5 -52t-50.5 -19q-31 0 -50 19t-19 52q0 32 19 51.5zM234.5 737q18.5 19 50.5 19q31 0 49.5 -19t18.5 -51t-18.5 -51.5t-49.5 -19.5t-50 19.5
t-19 51.5t18.5 51z" />
    <glyph glyph-name="yacute" unicode="&#xfd;" horiz-adv-x="575" 
d="M530.5 476.5q17.5 -33.5 17.5 -81.5q0 -102 -69 -236.5t-180 -230t-232 -95.5q-33 0 -68 7.5t-64 21.5l32 127q34 -18 76.5 -27.5t79.5 -9.5q65 0 133 35l-117 392q-10 34 -28 48.5t-46 14.5h-7l11 50l190 31l111 -448q36 43 56 94t20 103q0 97 -74 177l105 74
q36 -13 53.5 -46.5zM389 756h142l-181 -161h-88z" />
    <glyph glyph-name="thorn" unicode="&#xfe;" horiz-adv-x="625" 
d="M507 499q40 -24 63.5 -71t23.5 -114q0 -79 -34.5 -151.5t-101 -117.5t-157.5 -45q-67 0 -117 33l-54 -234h-149l190 821q2 12 2 16q0 35 -44 35h-13l13 51l222 35l-70 -298q27 30 63.5 47t75.5 17q47 0 87 -24zM360.5 81.5q35.5 35.5 54.5 91t19 113.5q0 65 -25.5 102
t-73.5 37q-32 0 -64 -18l-72 -309q9 -23 29.5 -37.5t50.5 -14.5q46 0 81.5 35.5z" />
    <glyph glyph-name="ydieresis" unicode="&#xff;" horiz-adv-x="575" 
d="M530.5 476.5q17.5 -33.5 17.5 -81.5q0 -102 -69 -236.5t-180 -230t-232 -95.5q-33 0 -68 7.5t-64 21.5l32 127q34 -18 76.5 -27.5t79.5 -9.5q65 0 133 35l-117 392q-10 34 -28 48.5t-46 14.5h-7l11 50l190 31l111 -448q36 43 56 94t20 103q0 97 -74 177l105 74
q36 -13 53.5 -46.5zM392 737.5q19 19.5 50 19.5t50 -19.5t19 -51.5q0 -33 -18.5 -52t-50.5 -19q-31 0 -50 19t-19 52q0 32 19 51.5zM183.5 737q18.5 19 50.5 19q31 0 49.5 -19t18.5 -51t-18.5 -51.5t-49.5 -19.5t-50 19.5t-19 51.5t18.5 51z" />
    <glyph glyph-name="Amacron" unicode="&#x100;" horiz-adv-x="766" 
d="M658.5 78.5q24.5 -18.5 51.5 -21.5l-13 -57h-329l13 57q42 0 65 17t23 48q0 5 -2 17l-14 90h-232l-56 -92q-10 -16 -10 -31q0 -22 23 -35.5t61 -13.5l-14 -57h-274l13 57q44 7 70.5 25t50.5 55l352 563h98l94 -573q5 -30 29.5 -48.5zM443 290l-38 244l-148 -244h186z
M667 872l-21 -96h-299l22 96h298z" />
    <glyph glyph-name="amacron" unicode="&#x101;" horiz-adv-x="625" 
d="M591 87l-14 -56q-30 -16 -64.5 -26.5t-62.5 -10.5q-49 0 -73.5 28.5t-24.5 78.5q-21 -48 -59 -80t-96 -32q-78 0 -121.5 56t-43.5 140q0 78 37 157t103 130t147 51q39 0 70.5 -13.5t51.5 -35.5l6 28l138 21l-81 -350q-10 -42 -10 -58q0 -42 42 -42q24 0 55 14zM408 402
q-7 27 -24 46t-46 19q-41 0 -75.5 -38t-54.5 -95.5t-20 -111.5q0 -49 19.5 -80t59.5 -31q42 0 81 37zM563 700l-22 -95h-299l23 95h298z" />
    <glyph glyph-name="Abreve" unicode="&#x102;" horiz-adv-x="766" 
d="M658.5 78.5q24.5 -18.5 51.5 -21.5l-13 -57h-329l13 57q42 0 65 17t23 48q0 5 -2 17l-14 90h-232l-56 -92q-10 -16 -10 -31q0 -22 23 -35.5t61 -13.5l-14 -57h-274l13 57q44 7 70.5 25t50.5 55l352 563h98l94 -573q5 -30 29.5 -48.5zM443 290l-38 244l-148 -244h186z
M650 921q0 -34 -16 -71t-51.5 -63t-89.5 -26q-57 0 -84 28.5t-27 70.5q0 40 22 81h73q-10 -27 -10 -48q0 -44 38 -44q30 0 45.5 26t15.5 60v6h83q1 -5 1 -20z" />
    <glyph glyph-name="abreve" unicode="&#x103;" horiz-adv-x="625" 
d="M591 87l-14 -56q-30 -16 -64.5 -26.5t-62.5 -10.5q-49 0 -73.5 28.5t-24.5 78.5q-21 -48 -59 -80t-96 -32q-78 0 -121.5 56t-43.5 140q0 78 37 157t103 130t147 51q39 0 70.5 -13.5t51.5 -35.5l6 28l138 21l-81 -350q-10 -42 -10 -58q0 -42 42 -42q24 0 55 14zM408 402
q-7 27 -24 46t-46 19q-41 0 -75.5 -38t-54.5 -95.5t-20 -111.5q0 -49 19.5 -80t59.5 -31q42 0 81 37zM531 766q0 -76 -44.5 -123.5t-115.5 -47.5q-56 0 -83.5 28.5t-27.5 69.5q0 43 23 82h73q-11 -29 -11 -48q0 -44 39 -44q30 0 45.5 24t17.5 57v11h83z" />
    <glyph glyph-name="Aogonek" unicode="&#x104;" horiz-adv-x="766" 
d="M386 -50q0 -23 20 -35t46 -13l-16 -70q-48 5 -79.5 32t-31.5 65q0 46 44 74l12 54q42 0 65 17t23 48q0 5 -2 17l-14 90h-232l-56 -92q-10 -16 -10 -31q0 -22 23 -35.5t61 -13.5l-14 -57h-274l13 57q44 7 70.5 25t50.5 55l352 563h98l94 -573q5 -30 29.5 -48.5t51.5 -21.5
l-13 -57h-281q-30 -23 -30 -50zM443 290l-38 244l-148 -244h186z" />
    <glyph glyph-name="aogonek" unicode="&#x105;" horiz-adv-x="625" 
d="M426 -50q0 -23 20 -35t46 -13l-16 -70q-48 5 -79.5 32t-31.5 65q0 23 11 41.5t30 31.5q-54 22 -54 99q-21 -48 -59 -80t-96 -32q-78 0 -121.5 56t-43.5 140q0 78 37 157t103 130t147 51q39 0 70.5 -13.5t51.5 -35.5l6 28l138 21l-81 -350q-10 -42 -10 -58q0 -42 42 -42
q24 0 55 14l-14 -56q-30 -16 -64.5 -26.5t-62.5 -10.5h-2q-22 -20 -22 -44zM408 402q-7 27 -24 46t-46 19q-41 0 -75.5 -38t-54.5 -95.5t-20 -111.5q0 -49 19.5 -80t59.5 -31q42 0 81 37z" />
    <glyph glyph-name="Cacute" unicode="&#x106;" horiz-adv-x="698" 
d="M530 524q0 65 -22 100.5t-73 35.5q-59 0 -109 -48t-79 -122.5t-29 -150.5q0 -94 47 -155.5t138 -61.5q73 0 127.5 40t86.5 111h49q-27 -131 -110 -211t-212 -80q-92 0 -155 41.5t-94 110t-31 151.5q0 105 47.5 205t137 163.5t209.5 63.5q116 0 183.5 -63t70.5 -185h-185
q3 29 3 55zM511 776h-88l127 162h142z" />
    <glyph glyph-name="cacute" unicode="&#x107;" horiz-adv-x="503" 
d="M418 174h46q-25 -82 -85 -133.5t-147 -51.5q-91 0 -144 56t-53 152q0 83 39.5 158.5t107.5 121.5t147 46q70 0 114 -40t44 -126l-1 -16h-152q5 33 5 64q0 38 -10.5 55t-31.5 17q-32 0 -60.5 -34.5t-45.5 -88.5t-17 -109q0 -72 31.5 -110.5t86.5 -38.5q80 0 126 78z
M428 756h142l-181 -161h-88z" />
    <glyph glyph-name="Ccircumflex" unicode="&#x108;" horiz-adv-x="698" 
d="M530 524q0 65 -22 100.5t-73 35.5q-59 0 -109 -48t-79 -122.5t-29 -150.5q0 -94 47 -155.5t138 -61.5q73 0 127.5 40t86.5 111h49q-27 -131 -110 -211t-212 -80q-92 0 -155 41.5t-94 110t-31 151.5q0 105 47.5 205t137 163.5t209.5 63.5q116 0 183.5 -63t70.5 -185h-185
q3 29 3 55zM505 854l-95 -78h-108l182 176h69l99 -176h-89z" />
    <glyph glyph-name="ccircumflex" unicode="&#x109;" horiz-adv-x="503" 
d="M418 174h46q-25 -82 -85 -133.5t-147 -51.5q-91 0 -144 56t-53 152q0 83 39.5 158.5t107.5 121.5t147 46q70 0 114 -40t44 -126l-1 -16h-152q5 33 5 64q0 38 -10.5 55t-31.5 17q-32 0 -60.5 -34.5t-45.5 -88.5t-17 -109q0 -72 31.5 -110.5t86.5 -38.5q80 0 126 78z
M339 771h69l99 -176h-89l-58 78l-95 -78h-108z" />
    <glyph glyph-name="Cdotaccent" unicode="&#x10a;" horiz-adv-x="698" 
d="M530 524q0 65 -22 100.5t-73 35.5q-59 0 -109 -48t-79 -122.5t-29 -150.5q0 -94 47 -155.5t138 -61.5q73 0 127.5 40t86.5 111h49q-27 -131 -110 -211t-212 -80q-92 0 -155 41.5t-94 110t-31 151.5q0 105 47.5 205t137 163.5t209.5 63.5q116 0 183.5 -63t70.5 -185h-185
q3 29 3 55zM445.5 804.5q-28.5 28.5 -28.5 70.5t28.5 69.5t73.5 27.5q46 0 74.5 -28t28.5 -69q0 -42 -28.5 -70.5t-73.5 -28.5q-46 0 -74.5 28.5z" />
    <glyph glyph-name="cdotaccent" unicode="&#x10b;" horiz-adv-x="503" 
d="M418 174h46q-25 -82 -85 -133.5t-147 -51.5q-91 0 -144 56t-53 152q0 83 39.5 158.5t107.5 121.5t147 46q70 0 114 -40t44 -126l-1 -16h-152q5 33 5 64q0 38 -10.5 55t-31.5 17q-32 0 -60.5 -34.5t-45.5 -88.5t-17 -109q0 -72 31.5 -110.5t86.5 -38.5q80 0 126 78z
M298.5 623.5q-28.5 28.5 -28.5 70.5t28.5 69.5t73.5 27.5q46 0 74.5 -28t28.5 -69q0 -42 -28.5 -70.5t-73.5 -28.5q-46 0 -74.5 28.5z" />
    <glyph glyph-name="Ccaron" unicode="&#x10c;" horiz-adv-x="698" 
d="M530 524q0 65 -22 100.5t-73 35.5q-59 0 -109 -48t-79 -122.5t-29 -150.5q0 -94 47 -155.5t138 -61.5q73 0 127.5 40t86.5 111h49q-27 -131 -110 -211t-212 -80q-92 0 -155 41.5t-94 110t-31 151.5q0 105 47.5 205t137 163.5t209.5 63.5q116 0 183.5 -63t70.5 -185h-185
q3 29 3 55zM490 776h-69l-99 176h90l57 -77l95 77h108z" />
    <glyph glyph-name="ccaron" unicode="&#x10d;" horiz-adv-x="503" 
d="M418 174h46q-25 -82 -85 -133.5t-147 -51.5q-91 0 -144 56t-53 152q0 83 39.5 158.5t107.5 121.5t147 46q70 0 114 -40t44 -126l-1 -16h-152q5 33 5 64q0 38 -10.5 55t-31.5 17q-32 0 -60.5 -34.5t-45.5 -88.5t-17 -109q0 -72 31.5 -110.5t86.5 -38.5q80 0 126 78z
M353 693l86 78h116l-182 -176h-69l-99 176h98z" />
    <glyph glyph-name="Dcaron" unicode="&#x10e;" horiz-adv-x="778" 
d="M613 660q70 -40 107 -107.5t37 -149.5q0 -104 -54.5 -196.5t-151.5 -149.5t-220 -57h-355l13 53l23 2q27 2 47 17t26 42l109 467q4 16 4 26q0 35 -50 38l-33 2l13 53h319q96 0 166 -40zM454 102q59 45 93.5 122.5t34.5 169.5q0 71 -21.5 128t-61.5 89.5t-95 32.5h-39
l-121 -523q-3 -12 -3 -21q0 -43 50 -43h34q70 0 129 45zM457 776h-69l-99 176h90l57 -77l95 77h108z" />
    <glyph glyph-name="dcaron" unicode="&#x10f;" horiz-adv-x="868" 
d="M497 116q0 -20 8.5 -31.5t30.5 -11.5q25 0 56 14l-14 -56q-30 -16 -64.5 -26.5t-62.5 -10.5q-49 0 -73.5 28t-25.5 79q-20 -48 -58 -80t-97 -32q-78 0 -121.5 56t-43.5 139q0 79 37.5 158t103.5 130t147 51q67 0 107 -35l31 132q2 10 2 16q0 35 -43 35h-13l12 51l223 35
l-134 -584q-8 -34 -8 -57zM408 402q-6 28 -23 46.5t-46 18.5q-40 0 -75 -38.5t-55 -96t-20 -111.5q0 -49 18.5 -79.5t60.5 -30.5t81 37zM890.5 706q28.5 -34 28.5 -96q0 -69 -35 -116.5t-86.5 -71t-101.5 -25.5l14 63q55 8 89 30t34 53q0 14 -6.5 19.5t-15.5 8.5l-12 4
l-20 7q-28 10 -41.5 30.5t-13.5 45.5q0 34 23.5 58t65.5 24q49 0 77.5 -34z" />
    <glyph glyph-name="Dcroat" unicode="&#x110;" horiz-adv-x="778" 
d="M613 660q70 -40 107 -107.5t37 -149.5q0 -104 -54.5 -196.5t-151.5 -149.5t-220 -57h-355l13 53l23 2q27 2 47 17t26 42l49 209h-90l12 54h90l48 204q4 16 4 26q0 35 -50 38l-33 2l13 53h319q96 0 166 -40zM454 102q59 45 93.5 122.5t34.5 169.5q0 71 -21.5 128
t-61.5 89.5t-95 32.5h-39l-62 -267h107l-12 -54h-107l-47 -202q-3 -12 -3 -21q0 -43 50 -43h34q70 0 129 45z" />
    <glyph glyph-name="dcroat" unicode="&#x111;" horiz-adv-x="626" 
d="M505 173q-8 -34 -8 -57q0 -20 8.5 -31.5t30.5 -11.5q25 0 56 14l-14 -56q-30 -16 -64.5 -26.5t-62.5 -10.5q-49 0 -73.5 28t-25.5 79q-20 -48 -58 -80t-97 -32q-78 0 -121.5 56t-43.5 139q0 79 37.5 158t103.5 130t147 51q67 0 107 -35l21 90h-134l9 39h134l1 3
q2 10 2 16q0 35 -43 35h-13l12 51l223 35l-32 -140h67l-9 -39h-67zM408 402q-6 28 -23 46.5t-46 18.5q-40 0 -75 -38.5t-55 -96t-20 -111.5q0 -49 18.5 -79.5t60.5 -30.5t81 37z" />
    <glyph glyph-name="Emacron" unicode="&#x112;" horiz-adv-x="688" 
d="M598 500v14q0 63 -33.5 96.5t-98.5 33.5h-101l-60 -259h60q50 0 77.5 26.5t40.5 78.5h57l-62 -268h-58q5 19 5 41q0 33 -18 49t-57 16h-58l-48 -207q-3 -12 -3 -21q0 -43 50 -43h52q76 0 134.5 48t93.5 133h58l-76 -238h-577l13 53l23 2q27 2 47 17t26 42l109 467
q4 16 4 26q0 35 -50 38l-33 2l13 53h577l-46 -200h-61zM631 872l-21 -96h-299l22 96h298z" />
    <glyph glyph-name="emacron" unicode="&#x113;" horiz-adv-x="509" 
d="M419 174h46q-25 -82 -85.5 -133.5t-147.5 -51.5q-91 0 -144 57t-53 153q0 84 40 158.5t109 120t153 45.5q72 0 114 -33t42 -86q0 -74 -84 -116t-232 -65q0 -56 31.5 -91.5t84.5 -35.5q78 0 126 78zM248 448.5q-28 -28.5 -46 -75.5t-23 -102q179 38 179 149q0 57 -48 57
q-34 0 -62 -28.5zM516 700l-22 -95h-299l23 95h298z" />
    <glyph glyph-name="Ebreve" unicode="&#x114;" horiz-adv-x="688" 
d="M598 500v14q0 63 -33.5 96.5t-98.5 33.5h-101l-60 -259h60q50 0 77.5 26.5t40.5 78.5h57l-62 -268h-58q5 19 5 41q0 33 -18 49t-57 16h-58l-48 -207q-3 -12 -3 -21q0 -43 50 -43h52q76 0 134.5 48t93.5 133h58l-76 -238h-577l13 53l23 2q27 2 47 17t26 42l109 467
q4 16 4 26q0 35 -50 38l-33 2l13 53h577l-46 -200h-61zM608 921q0 -34 -16 -71t-51.5 -63t-89.5 -26q-57 0 -84 28.5t-27 70.5q0 40 22 81h73q-10 -27 -10 -48q0 -44 38 -44q30 0 45.5 26t15.5 60v6h83q1 -5 1 -20z" />
    <glyph glyph-name="ebreve" unicode="&#x115;" horiz-adv-x="509" 
d="M419 174h46q-25 -82 -85.5 -133.5t-147.5 -51.5q-91 0 -144 57t-53 153q0 84 40 158.5t109 120t153 45.5q72 0 114 -33t42 -86q0 -74 -84 -116t-232 -65q0 -56 31.5 -91.5t84.5 -35.5q78 0 126 78zM248 448.5q-28 -28.5 -46 -75.5t-23 -102q179 38 179 149q0 57 -48 57
q-34 0 -62 -28.5zM487 766q0 -76 -44.5 -123.5t-115.5 -47.5q-56 0 -83.5 28.5t-27.5 69.5q0 43 23 82h73q-11 -29 -11 -48q0 -44 39 -44q30 0 45.5 24t17.5 57v11h83z" />
    <glyph glyph-name="Edotaccent" unicode="&#x116;" horiz-adv-x="688" 
d="M598 500v14q0 63 -33.5 96.5t-98.5 33.5h-101l-60 -259h60q50 0 77.5 26.5t40.5 78.5h57l-62 -268h-58q5 19 5 41q0 33 -18 49t-57 16h-58l-48 -207q-3 -12 -3 -21q0 -43 50 -43h52q76 0 134.5 48t93.5 133h58l-76 -238h-577l13 53l23 2q27 2 47 17t26 42l109 467
q4 16 4 26q0 35 -50 38l-33 2l13 53h577l-46 -200h-61zM402.5 804.5q-28.5 28.5 -28.5 70.5t28.5 69.5t73.5 27.5q46 0 74.5 -28t28.5 -69q0 -42 -28.5 -70.5t-73.5 -28.5q-46 0 -74.5 28.5z" />
    <glyph glyph-name="edotaccent" unicode="&#x117;" horiz-adv-x="509" 
d="M419 174h46q-25 -82 -85.5 -133.5t-147.5 -51.5q-91 0 -144 57t-53 153q0 84 40 158.5t109 120t153 45.5q72 0 114 -33t42 -86q0 -74 -84 -116t-232 -65q0 -56 31.5 -91.5t84.5 -35.5q78 0 126 78zM248 448.5q-28 -28.5 -46 -75.5t-23 -102q179 38 179 149q0 57 -48 57
q-34 0 -62 -28.5zM293.5 623.5q-28.5 28.5 -28.5 70.5t28.5 69.5t73.5 27.5q46 0 74.5 -28t28.5 -69q0 -42 -28.5 -70.5t-73.5 -28.5q-46 0 -74.5 28.5z" />
    <glyph glyph-name="Eogonek" unicode="&#x118;" horiz-adv-x="688" 
d="M598 500v14q0 63 -33.5 96.5t-98.5 33.5h-101l-60 -259h60q50 0 77.5 26.5t40.5 78.5h57l-62 -268h-58q5 19 5 41q0 33 -18 49t-57 16h-58l-48 -207q-3 -12 -3 -21q0 -43 50 -43h52q76 0 134.5 48t93.5 133h58l-76 -238h-87q-30 -23 -30 -50q0 -23 20 -35t46 -13l-16 -70
q-48 5 -79.5 32t-31.5 65q0 44 39 71h-438l13 53l23 2q27 2 47 17t26 42l109 467q4 16 4 26q0 35 -50 38l-33 2l13 53h577l-46 -200h-61z" />
    <glyph glyph-name="eogonek" unicode="&#x119;" horiz-adv-x="509" 
d="M419 174h46q-25 -82 -85.5 -133.5t-147.5 -51.5q-15 0 -22 1q-18 -18 -18 -40q0 -23 20 -35t46 -13l-16 -70q-48 5 -79.5 32t-31.5 65q0 42 36 69q-62 18 -97 71t-35 130q0 84 40 158.5t109 120t153 45.5q72 0 114 -33t42 -86q0 -74 -84 -116t-232 -65q0 -56 31.5 -91.5
t84.5 -35.5q78 0 126 78zM248 448.5q-28 -28.5 -46 -75.5t-23 -102q179 38 179 149q0 57 -48 57q-34 0 -62 -28.5z" />
    <glyph glyph-name="Ecaron" unicode="&#x11a;" horiz-adv-x="688" 
d="M598 500v14q0 63 -33.5 96.5t-98.5 33.5h-101l-60 -259h60q50 0 77.5 26.5t40.5 78.5h57l-62 -268h-58q5 19 5 41q0 33 -18 49t-57 16h-58l-48 -207q-3 -12 -3 -21q0 -43 50 -43h52q76 0 134.5 48t93.5 133h58l-76 -238h-577l13 53l23 2q27 2 47 17t26 42l109 467
q4 16 4 26q0 35 -50 38l-33 2l13 53h577l-46 -200h-61zM476 776h-69l-99 176h90l57 -77l95 77h108z" />
    <glyph glyph-name="ecaron" unicode="&#x11b;" horiz-adv-x="509" 
d="M419 174h46q-25 -82 -85.5 -133.5t-147.5 -51.5q-91 0 -144 57t-53 153q0 84 40 158.5t109 120t153 45.5q72 0 114 -33t42 -86q0 -74 -84 -116t-232 -65q0 -56 31.5 -91.5t84.5 -35.5q78 0 126 78zM248 448.5q-28 -28.5 -46 -75.5t-23 -102q179 38 179 149q0 57 -48 57
q-34 0 -62 -28.5zM341 693l86 78h116l-182 -176h-69l-99 176h98z" />
    <glyph glyph-name="Gcircumflex" unicode="&#x11c;" horiz-adv-x="728" 
d="M716 337l-13 -61h-62l-51 -238q-128 -56 -234 -56q-97 0 -163 41t-98 110t-32 152q0 104 48 204t138 164t210 64q115 0 182 -63t70 -185h-185q3 29 3 54q0 65 -22 101t-74 36q-63 0 -112 -50.5t-76.5 -130.5t-27.5 -164q0 -80 25 -139t67 -91t93 -32q20 0 35 9l47 214
h-121l13 61h340zM503 854l-95 -78h-108l182 176h69l99 -176h-89z" />
    <glyph glyph-name="gcircumflex" unicode="&#x11d;" horiz-adv-x="600" 
d="M619 410q-28 4 -86 21l-37 10q19 -16 31 -36t12 -48q0 -46 -33 -88t-92 -68.5t-132 -26.5q-65 0 -113 21q-28 -17 -28 -40q0 -20 15.5 -30.5t35.5 -13.5l120 -15q74 -9 130.5 -39t56.5 -98q0 -57 -45 -95t-114.5 -56.5t-145.5 -18.5q-69 0 -125 14.5t-89 42t-33 64.5
q0 42 39.5 66t100.5 30q-23 12 -37.5 37.5t-14.5 54.5q0 39 28 69.5t74 44.5q-29 20 -45.5 49t-16.5 65q0 52 32 97t89 72.5t128 27.5q35 0 73 -8q39 -6 69 -9t80 -3h96zM334.5 249q24.5 29 38 72.5t13.5 84.5q0 72 -47 72q-32 0 -57 -29t-38.5 -72t-13.5 -84q0 -73 48 -73
q32 0 56.5 29zM106 -11q-35 -28 -35 -62q0 -44 41 -66.5t109 -22.5q61 0 98 17.5t37 48.5q0 27 -27 39t-75 20zM356 771h69l99 -176h-89l-58 78l-95 -78h-108z" />
    <glyph glyph-name="Gbreve" unicode="&#x11e;" horiz-adv-x="728" 
d="M716 337l-13 -61h-62l-51 -238q-128 -56 -234 -56q-97 0 -163 41t-98 110t-32 152q0 104 48 204t138 164t210 64q115 0 182 -63t70 -185h-185q3 29 3 54q0 65 -22 101t-74 36q-63 0 -112 -50.5t-76.5 -130.5t-27.5 -164q0 -80 25 -139t67 -91t93 -32q20 0 35 9l47 214
h-121l13 61h340zM654 921q0 -34 -16 -71t-51.5 -63t-89.5 -26q-57 0 -84 28.5t-27 70.5q0 40 22 81h73q-10 -27 -10 -48q0 -44 38 -44q30 0 45.5 26t15.5 60v6h83q1 -5 1 -20z" />
    <glyph glyph-name="gbreve" unicode="&#x11f;" horiz-adv-x="600" 
d="M619 410q-28 4 -86 21l-37 10q19 -16 31 -36t12 -48q0 -46 -33 -88t-92 -68.5t-132 -26.5q-65 0 -113 21q-28 -17 -28 -40q0 -20 15.5 -30.5t35.5 -13.5l120 -15q74 -9 130.5 -39t56.5 -98q0 -57 -45 -95t-114.5 -56.5t-145.5 -18.5q-69 0 -125 14.5t-89 42t-33 64.5
q0 42 39.5 66t100.5 30q-23 12 -37.5 37.5t-14.5 54.5q0 39 28 69.5t74 44.5q-29 20 -45.5 49t-16.5 65q0 52 32 97t89 72.5t128 27.5q35 0 73 -8q39 -6 69 -9t80 -3h96zM334.5 249q24.5 29 38 72.5t13.5 84.5q0 72 -47 72q-32 0 -57 -29t-38.5 -72t-13.5 -84q0 -73 48 -73
q32 0 56.5 29zM106 -11q-35 -28 -35 -62q0 -44 41 -66.5t109 -22.5q61 0 98 17.5t37 48.5q0 27 -27 39t-75 20zM531 766q0 -76 -44.5 -123.5t-115.5 -47.5q-56 0 -83.5 28.5t-27.5 69.5q0 43 23 82h73q-11 -29 -11 -48q0 -44 39 -44q30 0 45.5 24t17.5 57v11h83z" />
    <glyph glyph-name="Gdotaccent" unicode="&#x120;" horiz-adv-x="728" 
d="M716 337l-13 -61h-62l-51 -238q-128 -56 -234 -56q-97 0 -163 41t-98 110t-32 152q0 104 48 204t138 164t210 64q115 0 182 -63t70 -185h-185q3 29 3 54q0 65 -22 101t-74 36q-63 0 -112 -50.5t-76.5 -130.5t-27.5 -164q0 -80 25 -139t67 -91t93 -32q20 0 35 9l47 214
h-121l13 61h340zM447.5 804.5q-28.5 28.5 -28.5 70.5t28.5 69.5t73.5 27.5q46 0 74.5 -28t28.5 -69q0 -42 -28.5 -70.5t-73.5 -28.5q-46 0 -74.5 28.5z" />
    <glyph glyph-name="gdotaccent" unicode="&#x121;" horiz-adv-x="600" 
d="M619 410q-28 4 -86 21l-37 10q19 -16 31 -36t12 -48q0 -46 -33 -88t-92 -68.5t-132 -26.5q-65 0 -113 21q-28 -17 -28 -40q0 -20 15.5 -30.5t35.5 -13.5l120 -15q74 -9 130.5 -39t56.5 -98q0 -57 -45 -95t-114.5 -56.5t-145.5 -18.5q-69 0 -125 14.5t-89 42t-33 64.5
q0 42 39.5 66t100.5 30q-23 12 -37.5 37.5t-14.5 54.5q0 39 28 69.5t74 44.5q-29 20 -45.5 49t-16.5 65q0 52 32 97t89 72.5t128 27.5q35 0 73 -8q39 -6 69 -9t80 -3h96zM334.5 249q24.5 29 38 72.5t13.5 84.5q0 72 -47 72q-32 0 -57 -29t-38.5 -72t-13.5 -84q0 -73 48 -73
q32 0 56.5 29zM106 -11q-35 -28 -35 -62q0 -44 41 -66.5t109 -22.5q61 0 98 17.5t37 48.5q0 27 -27 39t-75 20zM301.5 623.5q-28.5 28.5 -28.5 70.5t28.5 69.5t73.5 27.5q46 0 74.5 -28t28.5 -69q0 -42 -28.5 -70.5t-73.5 -28.5q-46 0 -74.5 28.5z" />
    <glyph glyph-name="uni0122" unicode="&#x122;" horiz-adv-x="728" 
d="M716 337l-13 -61h-62l-51 -238q-128 -56 -234 -56q-97 0 -163 41t-98 110t-32 152q0 104 48 204t138 164t210 64q115 0 182 -63t70 -185h-185q3 29 3 54q0 65 -22 101t-74 36q-63 0 -112 -50.5t-76.5 -130.5t-27.5 -164q0 -80 25 -139t67 -91t93 -32q20 0 35 9l47 214
h-121l13 61h340zM417.5 -77q28.5 -34 28.5 -96q0 -69 -35 -116.5t-86.5 -71t-101.5 -25.5l14 63q55 8 89 30t34 53q0 14 -6.5 19.5t-15.5 8.5l-12 4l-20 7q-28 10 -41.5 30.5t-13.5 45.5q0 34 23.5 58t65.5 24q49 0 77.5 -34z" />
    <glyph glyph-name="uni0123" unicode="&#x123;" horiz-adv-x="600" 
d="M289.5 616q-28.5 34 -28.5 96q0 69 35 116.5t86.5 71t101.5 25.5l-14 -63q-55 -8 -89 -30t-34 -53q0 -14 6.5 -19.5t15.5 -8.5l12 -4l20 -7q28 -10 41.5 -30.5t13.5 -45.5q0 -34 -23.5 -58t-65.5 -24q-49 0 -77.5 34zM619 410q-28 4 -86 21l-37 10q19 -16 31 -36t12 -48
q0 -46 -33 -88t-92 -68.5t-132 -26.5q-65 0 -113 21q-28 -17 -28 -40q0 -20 15.5 -30.5t35.5 -13.5l120 -15q74 -9 130.5 -39t56.5 -98q0 -57 -45 -95t-114.5 -56.5t-145.5 -18.5q-69 0 -125 14.5t-89 42t-33 64.5q0 42 39.5 66t100.5 30q-23 12 -37.5 37.5t-14.5 54.5
q0 39 28 69.5t74 44.5q-29 20 -45.5 49t-16.5 65q0 52 32 97t89 72.5t128 27.5q35 0 73 -8q39 -6 69 -9t80 -3h96zM334.5 249q24.5 29 38 72.5t13.5 84.5q0 72 -47 72q-32 0 -57 -29t-38.5 -72t-13.5 -84q0 -73 48 -73q32 0 56.5 29zM106 -11q-35 -28 -35 -62
q0 -44 41 -66.5t109 -22.5q61 0 98 17.5t37 48.5q0 27 -27 39t-75 20z" />
    <glyph glyph-name="Hcircumflex" unicode="&#x124;" horiz-adv-x="837" 
d="M904 700l-13 -53l-22 -3q-30 -4 -49 -17.5t-25 -40.5l-109 -468q-3 -13 -3 -22q0 -38 49 -41l33 -2l-13 -53h-334l13 53l23 2q28 2 47 17t26 42l50 213h-286l-49 -213q-2 -8 -2 -17q0 -19 13 -29.5t37 -12.5l32 -2l-12 -53h-334l13 53l19 2q65 7 77 59l109 468q3 14 3 23
q0 37 -49 40l-33 2l14 53h333l-13 -53l-22 -2q-61 -6 -74 -59l-47 -198h285l46 193q3 12 3 24q0 37 -50 40l-33 2l13 53h334zM552 854l-95 -78h-108l182 176h69l99 -176h-89z" />
    <glyph glyph-name="hcircumflex" unicode="&#x125;" horiz-adv-x="624" 
d="M511 760h64l92 -164h-82l-54 73l-89 -73h-100zM590 87l-14 -56q-31 -17 -65 -27t-64 -10q-50 0 -77 26.5t-27 76.5q0 31 10 68l38 144q9 34 9 57q0 26 -11.5 41t-34.5 15q-25 0 -55 -15.5t-46 -36.5l-85 -370h-149l143 620q2 8 2 15q0 16 -11.5 26t-33.5 10h-13l13 51
l223 35l-77 -335q72 101 167 101q55 0 87.5 -33t32.5 -96q0 -40 -12 -85l-36 -136q-2 -6 -7 -24t-5 -33q0 -43 43 -43q24 0 55 14z" />
    <glyph glyph-name="Hbar" unicode="&#x126;" horiz-adv-x="848" 
d="M915 700l-13 -53l-22 -3q-30 -4 -49 -17.5t-25 -40.5l-10 -44h67l-12 -47h-66l-88 -377q-3 -13 -3 -22q0 -38 49 -41l33 -2l-13 -53h-334l13 53l23 2q28 2 47 17t26 42l50 213h-286l-49 -213q-2 -8 -2 -17q0 -19 13 -29.5t37 -12.5l32 -2l-12 -53h-334l13 53l19 2
q65 7 77 59l89 381h-105l11 47h105l9 40q3 14 3 23q0 37 -49 40l-33 2l14 53h333l-13 -53l-22 -2q-61 -6 -74 -59l-10 -44h285l9 39q3 12 3 24q0 37 -50 40l-33 2l13 53h334zM628 495h-286l-25 -107h285z" />
    <glyph glyph-name="hbar" unicode="&#x127;" horiz-adv-x="624" 
d="M590 87l-14 -56q-31 -17 -65 -27t-64 -10q-50 0 -77 26.5t-27 76.5q0 31 10 68l38 144q9 34 9 57q0 26 -11.5 41t-34.5 15q-25 0 -55 -15.5t-46 -36.5l-85 -370h-149l133 578h-63l9 39h63l1 3q2 8 2 15q0 16 -11.5 26t-33.5 10h-13l13 51l223 35l-32 -140h139l-9 -39
h-139l-36 -156q72 101 167 101q55 0 87.5 -33t32.5 -96q0 -40 -12 -85l-36 -136q-2 -6 -7 -24t-5 -33q0 -43 43 -43q24 0 55 14z" />
    <glyph glyph-name="Itilde" unicode="&#x128;" horiz-adv-x="414" 
d="M250 96q0 -19 14 -29.5t36 -11.5l42 -2l-12 -53h-354l13 53l32 2q29 2 48 16.5t26 42.5l109 468q3 14 3 22q0 39 -49 41l-43 2l13 53h354l-13 -53l-33 -2q-28 -2 -47 -16.5t-26 -42.5l-109 -464q-4 -18 -4 -26zM458 813.5q-29 -37.5 -74 -37.5q-21 0 -38.5 7.5
t-38.5 21.5q-16 11 -27.5 16t-22.5 5q-17 0 -30.5 -12t-16.5 -33h-55q1 66 30 103.5t75 37.5q21 0 38 -7.5t38 -21.5q19 -11 29 -16t22 -5q17 0 30 12t16 36h55q-1 -69 -30 -106.5z" />
    <glyph glyph-name="itilde" unicode="&#x129;" horiz-adv-x="334" 
d="M208 150q-5 -20 -5 -39q0 -43 40 -43q25 0 55 14l-12 -56q-32 -17 -67.5 -27t-66.5 -10q-100 0 -100 103q0 34 10 73l55 222q2 10 2 15q0 17 -11.5 26t-32.5 9h-13l12 51l225 35l-85 -350q-1 -3 -6 -23zM385 632.5q-29 -37.5 -74 -37.5q-21 0 -38.5 7.5t-39.5 21.5
q-16 11 -27.5 16t-22.5 5q-17 0 -30.5 -12t-16.5 -33h-55q1 66 30 103.5t75 37.5q21 0 38.5 -7.5t38.5 -21.5q16 -11 27.5 -16t23.5 -5q17 0 30 12t16 36h55q-1 -69 -30 -106.5z" />
    <glyph glyph-name="Imacron" unicode="&#x12a;" horiz-adv-x="414" 
d="M250 96q0 -19 14 -29.5t36 -11.5l42 -2l-12 -53h-354l13 53l32 2q29 2 48 16.5t26 42.5l109 468q3 14 3 22q0 39 -49 41l-43 2l13 53h354l-13 -53l-33 -2q-28 -2 -47 -16.5t-26 -42.5l-109 -464q-4 -18 -4 -26zM487 872l-21 -96h-299l22 96h298z" />
    <glyph glyph-name="imacron" unicode="&#x12b;" horiz-adv-x="334" 
d="M208 150q-5 -20 -5 -39q0 -43 40 -43q25 0 55 14l-12 -56q-32 -17 -67.5 -27t-66.5 -10q-100 0 -100 103q0 34 10 73l55 222q2 10 2 15q0 17 -11.5 26t-32.5 9h-13l12 51l225 35l-85 -350q-1 -3 -6 -23zM408 719l-22 -95h-299l23 95h298z" />
    <glyph glyph-name="Iogonek" unicode="&#x12e;" horiz-adv-x="414" 
d="M482 700l-13 -53l-33 -2q-28 -2 -47 -16.5t-26 -42.5l-109 -464q-4 -18 -4 -26q0 -19 14 -29.5t36 -11.5l42 -2l-12 -53h-172q-30 -23 -30 -50q0 -23 20 -35t46 -13l-16 -70q-48 5 -79.5 32t-31.5 65q0 44 39 71h-130l13 53l32 2q29 2 48 16.5t26 42.5l109 468q3 14 3 22
q0 39 -49 41l-43 2l13 53h354z" />
    <glyph glyph-name="iogonek" unicode="&#x12f;" horiz-adv-x="334" 
d="M322 729q25 -25 25 -62t-25.5 -62t-67.5 -25q-41 0 -66.5 25.5t-25.5 61.5q0 37 25 62t67 25q43 0 68 -25zM214 173q-1 -5 -6.5 -24.5t-5.5 -36.5q0 -44 41 -44q25 0 55 14l-12 -56q-32 -17 -67.5 -27t-66.5 -10h-1q-17 -19 -17 -39q0 -23 20 -35t46 -13l-16 -70
q-48 5 -79.5 32t-31.5 65q0 40 34 67q-55 20 -55 96q0 32 10 73l55 222q2 10 2 15q0 17 -11.5 26t-32.5 9h-13l12 51l225 35z" />
    <glyph glyph-name="Idotaccent" unicode="&#x130;" horiz-adv-x="414" 
d="M250 96q0 -19 14 -29.5t36 -11.5l42 -2l-12 -53h-354l13 53l32 2q29 2 48 16.5t26 42.5l109 468q3 14 3 22q0 39 -49 41l-43 2l13 53h354l-13 -53l-33 -2q-28 -2 -47 -16.5t-26 -42.5l-109 -464q-4 -18 -4 -26zM281.5 804.5q-28.5 28.5 -28.5 70.5t28.5 69.5t73.5 27.5
q46 0 74.5 -28t28.5 -69q0 -42 -28.5 -70.5t-73.5 -28.5q-46 0 -74.5 28.5z" />
    <glyph glyph-name="dotlessi" unicode="&#x131;" horiz-adv-x="334" 
d="M208 150q-5 -20 -5 -39q0 -43 40 -43q25 0 55 14l-12 -56q-32 -17 -67.5 -27t-66.5 -10q-100 0 -100 103q0 34 10 73l55 222q2 10 2 15q0 17 -11.5 26t-32.5 9h-13l12 51l225 35l-85 -350q-1 -3 -6 -23z" />
    <glyph glyph-name="IJ" unicode="&#x132;" horiz-adv-x="784" 
d="M250 96q0 -19 14 -29.5t36 -11.5l42 -2l-12 -53h-354l13 53l32 2q29 2 48 16.5t26 42.5l109 468q3 14 3 22q0 39 -49 41l-43 2l13 53h354l-13 -53l-33 -2q-28 -2 -47 -16.5t-26 -42.5l-109 -464q-4 -18 -4 -26zM861 700l-12 -53l-30 -2q-61 -5 -74 -59l-108 -464
q-23 -99 -99 -173.5t-215 -126.5l-25 39l56 48q47 40 78 92t42 98l113 487q2 10 2 17q0 39 -49 42l-42 2l12 53h351z" />
    <glyph glyph-name="ij" unicode="&#x133;" horiz-adv-x="643" 
d="M187.5 605.5q-25.5 25.5 -25.5 61.5q0 37 25 62t67 25q43 0 68 -25t25 -62t-25.5 -62t-67.5 -25q-41 0 -66.5 25.5zM207.5 148.5q-5.5 -19.5 -5.5 -36.5q0 -44 41 -44q25 0 55 14l-12 -56q-32 -17 -67.5 -27t-66.5 -10q-100 0 -100 103q0 32 10 73l55 222q2 10 2 15
q0 17 -11.5 26t-32.5 9h-13l12 51l225 35l-85 -350q-1 -5 -6.5 -24.5zM515.5 605.5q-25.5 25.5 -25.5 61.5q0 37 25 62t67 25q43 0 68 -25t25 -62t-25.5 -62t-67.5 -25q-41 0 -66.5 25.5zM402 488l226 35l-102 -409q-19 -75 -47.5 -131.5t-94 -100.5t-178.5 -52l13 58
q50 18 79.5 49t44.5 69t31 102l71 278q2 10 2 15q0 17 -11.5 26.5t-33.5 9.5h-13z" />
    <glyph glyph-name="Jcircumflex" unicode="&#x134;" horiz-adv-x="364" 
d="M447 700l-12 -53l-30 -2q-61 -5 -74 -59l-108 -464q-23 -99 -99 -173.5t-215 -126.5l-25 39l56 48q47 40 78 92t42 98l113 487q2 10 2 17q0 39 -49 42l-42 2l12 53h351zM293 854l-95 -78h-108l182 176h69l99 -176h-89z" />
    <glyph glyph-name="jcircumflex" unicode="&#x135;" horiz-adv-x="304" 
d="M228 771h69l99 -176h-89l-58 78l-95 -78h-108zM291 523l-96 -374q-25 -99 -53 -162.5t-98 -120t-196 -77.5l14 64q58 32 93.5 75t54.5 89.5t35 109.5l66 260q2 10 2 15q0 17 -11.5 26t-33.5 9h-13l13 51z" />
    <glyph glyph-name="uni0136" unicode="&#x136;" horiz-adv-x="751" 
d="M240 97q0 -39 50 -42l32 -2l-12 -53h-334l13 53l21 2q29 2 49 17t26 42l110 472q3 12 3 21q0 22 -15 29.5t-35 8.5l-33 2l13 53h344l-13 -53l-33 -2q-27 -2 -47 -17t-26 -42l-111 -472q-2 -12 -2 -17zM835 700l-14 -56q-51 -3 -122 -57l-237 -177l151 -283
q18 -35 37.5 -54t43.5 -20l-12 -53h-179q-15 23 -32 57l-155 309l247 200q15 12 23.5 26t8.5 26t-10 19.5t-28 8.5l-25 1l13 53h290zM493.5 -77q28.5 -34 28.5 -96q0 -69 -35 -116.5t-86.5 -71t-101.5 -25.5l14 63q55 8 89 30t34 53q0 14 -6.5 19.5t-15.5 8.5l-12 4l-20 7
q-28 10 -41.5 30.5t-13.5 45.5q0 34 23.5 58t65.5 24q49 0 77.5 -34z" />
    <glyph glyph-name="uni0137" unicode="&#x137;" horiz-adv-x="637" 
d="M17 0l145 620q2 8 2 15q0 16 -11.5 26t-33.5 10h-13l13 51l223 35l-175 -757h-150zM535 384q-20 8 -40 8q-29 0 -53.5 -14t-44.5 -29.5t-26 -20.5l182 -328h-169l-142 255q25 29 73 89q48 61 80 96.5t69 59t75 23.5q35 0 72 -25l-32 -139q-24 17 -44 25zM364.5 -77
q28.5 -34 28.5 -96q0 -69 -35 -116.5t-86.5 -71t-101.5 -25.5l14 63q55 8 89 30t34 53q0 14 -6.5 19.5t-15.5 8.5l-12 4l-20 7q-28 10 -41.5 30.5t-13.5 45.5q0 34 23.5 58t65.5 24q49 0 77.5 -34z" />
    <glyph glyph-name="kgreenlandic" unicode="&#x138;" horiz-adv-x="646" 
d="M298 523l-119 -523h-152l90 387q2 10 2 15q0 35 -44 35h-13l13 51zM452 379q-24 -13 -44 -29t-28 -22l182 -328h-168l-143 255q29 33 75 91q49 62 80.5 96.5t67.5 57.5t75 23q34 0 71 -25l-32 -139q-24 17 -43.5 25t-40.5 8q-28 0 -52 -13z" />
    <glyph glyph-name="Lacute" unicode="&#x139;" horiz-adv-x="668" 
d="M629 238l-76 -238h-577l13 53l22 2q61 5 74 59l108 463q4 18 4 28q0 37 -49 40l-33 2l13 53h345l-13 -53l-35 -2q-28 -2 -47 -16.5t-26 -42.5l-109 -465q-2 -10 -2 -18q0 -20 13.5 -33t38.5 -13h50q76 0 134.5 48t93.5 133h58zM361 776h-88l127 162h142z" />
    <glyph glyph-name="lacute" unicode="&#x13a;" horiz-adv-x="328" 
d="M204 153.5q-5 -19.5 -5 -35.5q0 -45 42 -45q25 0 55 14l-13 -56q-66 -37 -132 -37q-50 0 -76.5 28t-26.5 80q0 30 9 68l105 450q2 8 2 15q0 16 -11.5 26t-33.5 10h-13l13 51l223 35l-132 -579q-1 -5 -6 -24.5zM276 776h-88l127 162h142z" />
    <glyph glyph-name="uni013B" unicode="&#x13b;" horiz-adv-x="668" 
d="M629 238l-76 -238h-577l13 53l22 2q61 5 74 59l108 463q4 18 4 28q0 37 -49 40l-33 2l13 53h345l-13 -53l-35 -2q-28 -2 -47 -16.5t-26 -42.5l-109 -465q-2 -10 -2 -18q0 -20 13.5 -33t38.5 -13h50q76 0 134.5 48t93.5 133h58zM370.5 -77q28.5 -34 28.5 -96
q0 -69 -35 -116.5t-86.5 -71t-101.5 -25.5l14 63q55 8 89 30t34 53q0 14 -6.5 19.5t-15.5 8.5l-12 4l-20 7q-28 10 -41.5 30.5t-13.5 45.5q0 34 23.5 58t65.5 24q49 0 77.5 -34z" />
    <glyph glyph-name="uni013C" unicode="&#x13c;" horiz-adv-x="328" 
d="M204 153.5q-5 -19.5 -5 -35.5q0 -45 42 -45q25 0 55 14l-13 -56q-66 -37 -132 -37q-50 0 -76.5 28t-26.5 80q0 30 9 68l105 450q2 8 2 15q0 16 -11.5 26t-33.5 10h-13l13 51l223 35l-132 -579q-1 -5 -6 -24.5zM232.5 -77q28.5 -34 28.5 -96q0 -69 -35 -116.5t-86.5 -71
t-101.5 -25.5l14 63q55 8 89 30t34 53q0 14 -6.5 19.5t-15.5 8.5l-12 4l-20 7q-28 10 -41.5 30.5t-13.5 45.5q0 34 23.5 58t65.5 24q49 0 77.5 -34z" />
    <glyph glyph-name="Lcaron" unicode="&#x13d;" horiz-adv-x="724" 
d="M629 238l-76 -238h-577l13 53l22 2q61 5 74 59l108 463q4 18 4 28q0 37 -49 40l-33 2l13 53h345l-13 -53l-35 -2q-28 -2 -47 -16.5t-26 -42.5l-109 -465q-2 -10 -2 -18q0 -20 13.5 -33t38.5 -13h50q76 0 134.5 48t93.5 133h58zM736.5 707q28.5 -34 28.5 -96
q0 -69 -35 -116.5t-86.5 -71t-101.5 -25.5l14 63q55 8 89 30t34 53q0 14 -6.5 19.5t-15.5 8.5l-12 4l-20 7q-28 10 -41.5 30.5t-13.5 45.5q0 34 23.5 58t65.5 24q49 0 77.5 -34z" />
    <glyph glyph-name="lcaron" unicode="&#x13e;" horiz-adv-x="574" 
d="M204 153.5q-5 -19.5 -5 -35.5q0 -45 42 -45q25 0 55 14l-13 -56q-66 -37 -132 -37q-50 0 -76.5 28t-26.5 80q0 30 9 68l105 450q2 8 2 15q0 16 -11.5 26t-33.5 10h-13l13 51l223 35l-132 -579q-1 -5 -6 -24.5zM596.5 706q28.5 -34 28.5 -96q0 -69 -35 -116.5t-86.5 -71
t-101.5 -25.5l14 63q55 8 89 30t34 53q0 14 -6.5 19.5t-15.5 8.5l-12 4l-20 7q-28 10 -41.5 30.5t-13.5 45.5q0 34 23.5 58t65.5 24q49 0 77.5 -34z" />
    <glyph glyph-name="Ldot" unicode="&#x13f;" horiz-adv-x="699" 
d="M629 238l-76 -238h-577l13 53l22 2q61 5 74 59l108 463q4 18 4 28q0 37 -49 40l-33 2l13 53h345l-13 -53l-35 -2q-28 -2 -47 -16.5t-26 -42.5l-109 -465q-2 -10 -2 -18q0 -20 13.5 -33t38.5 -13h50q76 0 134.5 48t93.5 133h58zM528.5 375.5q-28.5 28.5 -28.5 70.5
t28.5 69.5t73.5 27.5q46 0 74.5 -28t28.5 -69q0 -42 -28.5 -70.5t-73.5 -28.5q-46 0 -74.5 28.5z" />
    <glyph glyph-name="ldot" unicode="&#x140;" horiz-adv-x="535" 
d="M204 153.5q-5 -19.5 -5 -35.5q0 -45 42 -45q25 0 55 14l-13 -56q-66 -37 -132 -37q-50 0 -76.5 28t-26.5 80q0 30 9 68l105 450q2 8 2 15q0 16 -11.5 26t-33.5 10h-13l13 51l223 35l-132 -579q-1 -5 -6 -24.5zM401.5 364.5q-28.5 28.5 -28.5 70.5t28.5 69.5t73.5 27.5
q46 0 74.5 -28t28.5 -69q0 -42 -28.5 -70.5t-73.5 -28.5q-46 0 -74.5 28.5z" />
    <glyph glyph-name="Lslash" unicode="&#x141;" horiz-adv-x="672" 
d="M633 238l-76 -238h-577l13 53l22 2q61 5 74 59l32 136l-94 -49v64l111 58l59 254q4 18 4 28q0 37 -49 40l-33 2l13 53h345l-13 -53l-35 -2q-28 -2 -47 -16.5t-26 -42.5l-40 -169l102 53v-63l-119 -62l-52 -224q-2 -10 -2 -18q0 -20 13.5 -33t38.5 -13h50q76 0 134.5 48
t93.5 133h58z" />
    <glyph glyph-name="lslash" unicode="&#x142;" horiz-adv-x="335" 
d="M269 414l65 34v-58l-80 -41l-39 -171q-1 -5 -6 -24.5t-5 -35.5q0 -45 42 -45q25 0 55 14l-13 -56q-66 -37 -132 -37q-50 0 -76.5 28t-26.5 80q0 30 9 68l21 91l-67 -35v58l83 43l68 293q2 8 2 15q0 16 -11.5 26t-33.5 10h-13l13 51l223 35z" />
    <glyph glyph-name="Nacute" unicode="&#x143;" horiz-adv-x="795" 
d="M877 700l-13 -53l-25 -2q-34 -3 -55.5 -24t-29.5 -55l-131 -566h-60l-281 520l-88 -378q-5 -21 -5 -31q0 -24 14 -39.5t37 -16.5l47 -2l-13 -53h-278l12 53l27 2q28 2 53 24.5t32 54.5l101 440l-12 21q-17 29 -38 39t-56 13l13 53h237l242 -454l74 320q3 12 3 24
q0 24 -14 39t-37 16l-47 2l13 53h278zM515 776h-88l127 162h142z" />
    <glyph glyph-name="nacute" unicode="&#x144;" horiz-adv-x="633" 
d="M599 87l-13 -56q-31 -17 -65 -27t-64 -10q-50 0 -77 26.5t-27 75.5q0 32 10 69l38 144q1 3 5.5 21t4.5 36q0 56 -47 56q-26 0 -56 -15.5t-46 -36.5l-84 -370h-150l89 387q2 12 2 17q0 35 -44 35h-13l12 51l208 33l-27 -121q84 121 187 121q55 0 88 -33t33 -95
q0 -37 -13 -86l-36 -136q-1 -4 -6 -22.5t-5 -34.5q0 -43 41 -43q24 0 55 14zM479 756h142l-181 -161h-88z" />
    <glyph glyph-name="uni0145" unicode="&#x145;" horiz-adv-x="795" 
d="M877 700l-13 -53l-25 -2q-34 -3 -55.5 -24t-29.5 -55l-131 -566h-60l-281 520l-88 -378q-5 -21 -5 -31q0 -24 14 -39.5t37 -16.5l47 -2l-13 -53h-278l12 53l27 2q28 2 53 24.5t32 54.5l101 440l-12 21q-17 29 -38 39t-56 13l13 53h237l242 -454l74 320q3 12 3 24
q0 24 -14 39t-37 16l-47 2l13 53h278zM443.5 -77q28.5 -34 28.5 -96q0 -69 -35 -116.5t-86.5 -71t-101.5 -25.5l14 63q55 8 89 30t34 53q0 14 -6.5 19.5t-15.5 8.5l-12 4l-20 7q-28 10 -41.5 30.5t-13.5 45.5q0 34 23.5 58t65.5 24q49 0 77.5 -34z" />
    <glyph glyph-name="uni0146" unicode="&#x146;" horiz-adv-x="633" 
d="M599 87l-13 -56q-31 -17 -65 -27t-64 -10q-50 0 -77 26.5t-27 75.5q0 32 10 69l38 144q1 3 5.5 21t4.5 36q0 56 -47 56q-26 0 -56 -15.5t-46 -36.5l-84 -370h-150l89 387q2 12 2 17q0 35 -44 35h-13l12 51l208 33l-27 -121q84 121 187 121q55 0 88 -33t33 -95
q0 -37 -13 -86l-36 -136q-1 -4 -6 -22.5t-5 -34.5q0 -43 41 -43q24 0 55 14zM360.5 -77q28.5 -34 28.5 -96q0 -69 -35 -116.5t-86.5 -71t-101.5 -25.5l14 63q55 8 89 30t34 53q0 14 -6.5 19.5t-15.5 8.5l-12 4l-20 7q-28 10 -41.5 30.5t-13.5 45.5q0 34 23.5 58t65.5 24
q49 0 77.5 -34z" />
    <glyph glyph-name="Ncaron" unicode="&#x147;" horiz-adv-x="795" 
d="M877 700l-13 -53l-25 -2q-34 -3 -55.5 -24t-29.5 -55l-131 -566h-60l-281 520l-88 -378q-5 -21 -5 -31q0 -24 14 -39.5t37 -16.5l47 -2l-13 -53h-278l12 53l27 2q28 2 53 24.5t32 54.5l101 440l-12 21q-17 29 -38 39t-56 13l13 53h237l242 -454l74 320q3 12 3 24
q0 24 -14 39t-37 16l-47 2l13 53h278zM527 776h-69l-99 176h90l57 -77l95 77h108z" />
    <glyph glyph-name="ncaron" unicode="&#x148;" horiz-adv-x="633" 
d="M599 87l-13 -56q-31 -17 -65 -27t-64 -10q-50 0 -77 26.5t-27 75.5q0 32 10 69l38 144q1 3 5.5 21t4.5 36q0 56 -47 56q-26 0 -56 -15.5t-46 -36.5l-84 -370h-150l89 387q2 12 2 17q0 35 -44 35h-13l12 51l208 33l-27 -121q84 121 187 121q55 0 88 -33t33 -95
q0 -37 -13 -86l-36 -136q-1 -4 -6 -22.5t-5 -34.5q0 -43 41 -43q24 0 55 14zM398 693l86 78h116l-182 -176h-69l-99 176h98z" />
    <glyph glyph-name="napostrophe" unicode="&#x149;" horiz-adv-x="946" 
d="M912 87l-13 -56q-31 -17 -65 -27t-64 -10q-50 0 -77 26.5t-27 75.5q0 32 10 69l38 144q1 3 5.5 21t4.5 36q0 56 -47 56q-26 0 -56 -15.5t-46 -36.5l-84 -370h-150l89 387q2 12 2 17q0 35 -44 35h-13l12 51l208 33l-27 -121q84 121 187 121q55 0 88 -33t33 -95
q0 -37 -13 -86l-36 -136q-1 -4 -6 -22.5t-5 -34.5q0 -43 41 -43q24 0 55 14zM326.5 707q28.5 -34 28.5 -96q0 -69 -35 -116.5t-86.5 -71t-101.5 -25.5l14 63q55 8 89 30t34 53q0 14 -6.5 19.5t-15.5 8.5l-12 4l-20 7q-28 10 -41.5 30.5t-13.5 45.5q0 34 23.5 58t65.5 24
q49 0 77.5 -34z" />
    <glyph glyph-name="Eng" unicode="&#x14a;" horiz-adv-x="795" 
d="M877 700l-13 -53l-25 -2q-29 -3 -53.5 -25t-31.5 -54l-97 -418q-23 -95 -51 -159.5t-99 -121t-199 -78.5l15 64q77 43 116 105.5t62 154.5l-219 407l-90 -386q-3 -12 -3 -22q0 -24 14 -40t37 -17l47 -2l-13 -53h-278l12 53l28 2q29 4 53 26t31 53l101 440l-12 21
q-17 29 -38 39t-56 13l13 53h242l237 -450l74 316q3 12 3 24q0 24 -14 38.5t-37 16.5l-47 2l13 53h278z" />
    <glyph glyph-name="eng" unicode="&#x14b;" horiz-adv-x="598" 
d="M529.5 490q32.5 -33 32.5 -97q0 -37 -12 -84l-50 -195q-20 -76 -48 -132t-93.5 -100t-178.5 -52l13 58q50 18 79.5 49t44 68t31.5 103l53 201q9 38 9 59q0 25 -11 39.5t-35 14.5q-26 0 -56 -15.5t-46 -36.5l-84 -370h-150l89 388q2 12 2 15q0 36 -44 36h-13l12 51l208 33
l-27 -121q84 121 186 121q56 0 88.5 -33z" />
    <glyph glyph-name="Omacron" unicode="&#x14c;" horiz-adv-x="804" 
d="M208 25q-71 43 -106 116t-35 161q0 105 49 200.5t140 155t211 59.5q102 0 172.5 -43t105.5 -116t35 -161q0 -105 -49 -200.5t-140 -155t-210 -59.5q-102 0 -173 43zM497.5 96q50.5 57 78.5 147t28 187q0 107 -35.5 169t-102.5 62q-65 0 -116.5 -56.5t-79.5 -146.5
t-28 -186q0 -107 36 -170t104 -63q65 0 115.5 57zM667 872l-21 -96h-299l22 96h298z" />
    <glyph glyph-name="omacron" unicode="&#x14d;" horiz-adv-x="593" 
d="M96 52.5q-56 63.5 -56 164.5q0 86 38.5 155.5t106.5 110t152 40.5q106 0 163 -63.5t57 -166.5q0 -85 -38.5 -154.5t-106.5 -109.5t-153 -40q-107 0 -163 63.5zM326.5 85q33.5 49 53.5 123t20 145q0 56 -14.5 90t-44.5 34q-37 0 -70.5 -49t-54 -123t-20.5 -144
q0 -56 14.5 -90.5t45.5 -34.5q37 0 70.5 49zM531 700l-22 -95h-299l23 95h298z" />
    <glyph glyph-name="Obreve" unicode="&#x14e;" horiz-adv-x="804" 
d="M208 25q-71 43 -106 116t-35 161q0 105 49 200.5t140 155t211 59.5q102 0 172.5 -43t105.5 -116t35 -161q0 -105 -49 -200.5t-140 -155t-210 -59.5q-102 0 -173 43zM497.5 96q50.5 57 78.5 147t28 187q0 107 -35.5 169t-102.5 62q-65 0 -116.5 -56.5t-79.5 -146.5
t-28 -186q0 -107 36 -170t104 -63q65 0 115.5 57zM659 921q0 -34 -16 -71t-51.5 -63t-89.5 -26q-57 0 -84 28.5t-27 70.5q0 40 22 81h73q-10 -27 -10 -48q0 -44 38 -44q30 0 45.5 26t15.5 60v6h83q1 -5 1 -20z" />
    <glyph glyph-name="obreve" unicode="&#x14f;" horiz-adv-x="593" 
d="M96 52.5q-56 63.5 -56 164.5q0 86 38.5 155.5t106.5 110t152 40.5q106 0 163 -63.5t57 -166.5q0 -85 -38.5 -154.5t-106.5 -109.5t-153 -40q-107 0 -163 63.5zM326.5 85q33.5 49 53.5 123t20 145q0 56 -14.5 90t-44.5 34q-37 0 -70.5 -49t-54 -123t-20.5 -144
q0 -56 14.5 -90.5t45.5 -34.5q37 0 70.5 49zM533 766q0 -76 -44.5 -123.5t-115.5 -47.5q-56 0 -83.5 28.5t-27.5 69.5q0 43 23 82h73q-11 -29 -11 -48q0 -44 39 -44q30 0 45.5 24t17.5 57v11h83z" />
    <glyph glyph-name="Ohungarumlaut" unicode="&#x150;" horiz-adv-x="804" 
d="M208 25q-71 43 -106 116t-35 161q0 105 49 200.5t140 155t211 59.5q102 0 172.5 -43t105.5 -116t35 -161q0 -105 -49 -200.5t-140 -155t-210 -59.5q-102 0 -173 43zM497.5 96q50.5 57 78.5 147t28 187q0 107 -35.5 169t-102.5 62q-65 0 -116.5 -56.5t-79.5 -146.5
t-28 -186q0 -107 36 -170t104 -63q65 0 115.5 57zM440 934h101l-90 -158h-83zM589 934h102l-92 -158h-82z" />
    <glyph glyph-name="ohungarumlaut" unicode="&#x151;" horiz-adv-x="593" 
d="M96 52.5q-56 63.5 -56 164.5q0 86 38.5 155.5t106.5 110t152 40.5q106 0 163 -63.5t57 -166.5q0 -85 -38.5 -154.5t-106.5 -109.5t-153 -40q-107 0 -163 63.5zM326.5 85q33.5 49 53.5 123t20 145q0 56 -14.5 90t-44.5 34q-37 0 -70.5 -49t-54 -123t-20.5 -144
q0 -56 14.5 -90.5t45.5 -34.5q37 0 70.5 49zM312 752h102l-91 -157h-83zM461 752h102l-91 -157h-82z" />
    <glyph glyph-name="OE" unicode="&#x152;" horiz-adv-x="1062" 
d="M1033 500h-61q2 10 2 16q0 62 -34 95t-100 33h-101l-58 -259h59q50 0 77.5 26.5t41.5 78.5h58l-63 -267h-58q5 23 5 38q0 67 -76 67h-59l-47 -205q-3 -9 -3 -20q0 -46 50 -46h52q76 0 134.5 48t93.5 133h57l-75 -238h-547q-101 0 -172.5 41.5t-107 110.5t-35.5 151
q0 98 49 189.5t144.5 149.5t227.5 58h593zM435 73q19 16 27 49l101 436q4 18 4 33q0 26 -20.5 39.5t-58.5 13.5q-79 0 -134.5 -54.5t-83 -139t-27.5 -171.5q0 -97 35 -159.5t104 -62.5q34 0 53 16z" />
    <glyph glyph-name="oe" unicode="&#x153;" horiz-adv-x="887" 
d="M797 174h46q-25 -82 -85.5 -133.5t-147.5 -51.5q-52 0 -90.5 19.5t-62.5 56.5q-38 -37 -88.5 -56.5t-109.5 -19.5q-107 0 -163 63.5t-56 164.5q0 86 38.5 155.5t106.5 110t152 40.5q63 0 107 -23t69 -66q40 42 91.5 65.5t110.5 23.5q72 0 114 -33t42 -86q0 -74 -84 -116
t-232 -65q0 -56 31.5 -91.5t84.5 -35.5q78 0 126 78zM326.5 85q33.5 49 53.5 123t20 145q0 56 -14.5 90t-44.5 34q-37 0 -70.5 -49t-54 -123t-20.5 -144q0 -56 14.5 -90.5t45.5 -34.5q37 0 70.5 49zM626 448.5q-28 -28.5 -46 -75.5t-23 -102q179 38 179 149q0 57 -48 57
q-34 0 -62 -28.5z" />
    <glyph glyph-name="Racute" unicode="&#x154;" horiz-adv-x="711" 
d="M611.5 75.5q14.5 -19.5 36.5 -22.5l-11 -53h-167q-19 37 -29 64l-93 247h-60l-46 -197q-2 -12 -2 -17q0 -39 50 -42l32 -2l-12 -53h-334l13 53l22 2q27 2 47.5 17t26.5 42l110 472q2 14 2 19q0 37 -49 40l-33 2l13 53h329q69 0 118.5 -23.5t74.5 -63t25 -85.5
q0 -63 -45.5 -117.5t-130.5 -78.5l87 -209q11 -28 25.5 -47.5zM428 391.5q37 24.5 56 63t19 78.5q0 47 -28.5 79t-81.5 32h-27l-65 -277h41q49 0 86 24.5zM461 776h-88l127 162h142z" />
    <glyph glyph-name="racute" unicode="&#x155;" horiz-adv-x="453" 
d="M486 509l-36 -149q-17 10 -40.5 15.5t-47.5 5.5q-33 0 -62.5 -15t-47.5 -38l-75 -328h-150l90 388q2 10 2 15q0 17 -11 26.5t-33 9.5h-13l12 51l208 33l-36 -164q48 83 89 123.5t91 40.5q32 0 60 -14zM398 756h142l-181 -161h-88z" />
    <glyph glyph-name="uni0156" unicode="&#x156;" horiz-adv-x="711" 
d="M611.5 75.5q14.5 -19.5 36.5 -22.5l-11 -53h-167q-19 37 -29 64l-93 247h-60l-46 -197q-2 -12 -2 -17q0 -39 50 -42l32 -2l-12 -53h-334l13 53l22 2q27 2 47.5 17t26.5 42l110 472q2 14 2 19q0 37 -49 40l-33 2l13 53h329q69 0 118.5 -23.5t74.5 -63t25 -85.5
q0 -63 -45.5 -117.5t-130.5 -78.5l87 -209q11 -28 25.5 -47.5zM428 391.5q37 24.5 56 63t19 78.5q0 47 -28.5 79t-81.5 32h-27l-65 -277h41q49 0 86 24.5zM443.5 -77q28.5 -34 28.5 -96q0 -69 -35 -116.5t-86.5 -71t-101.5 -25.5l14 63q55 8 89 30t34 53q0 14 -6.5 19.5
t-15.5 8.5l-12 4l-20 7q-28 10 -41.5 30.5t-13.5 45.5q0 34 23.5 58t65.5 24q49 0 77.5 -34z" />
    <glyph glyph-name="uni0157" unicode="&#x157;" horiz-adv-x="453" 
d="M486 509l-36 -149q-17 10 -40.5 15.5t-47.5 5.5q-33 0 -62.5 -15t-47.5 -38l-75 -328h-150l90 388q2 10 2 15q0 17 -11 26.5t-33 9.5h-13l12 51l208 33l-36 -164q48 83 89 123.5t91 40.5q32 0 60 -14zM169.5 -77q28.5 -34 28.5 -96q0 -69 -35 -116.5t-86.5 -71
t-101.5 -25.5l14 63q55 8 89 30t34 53q0 14 -6.5 19.5t-15.5 8.5l-12 4l-20 7q-28 10 -41.5 30.5t-13.5 45.5q0 34 23.5 58t65.5 24q49 0 77.5 -34z" />
    <glyph glyph-name="Rcaron" unicode="&#x158;" horiz-adv-x="711" 
d="M611.5 75.5q14.5 -19.5 36.5 -22.5l-11 -53h-167q-19 37 -29 64l-93 247h-60l-46 -197q-2 -12 -2 -17q0 -39 50 -42l32 -2l-12 -53h-334l13 53l22 2q27 2 47.5 17t26.5 42l110 472q2 14 2 19q0 37 -49 40l-33 2l13 53h329q69 0 118.5 -23.5t74.5 -63t25 -85.5
q0 -63 -45.5 -117.5t-130.5 -78.5l87 -209q11 -28 25.5 -47.5zM428 391.5q37 24.5 56 63t19 78.5q0 47 -28.5 79t-81.5 32h-27l-65 -277h41q49 0 86 24.5zM461 776h-69l-99 176h90l57 -77l95 77h108z" />
    <glyph glyph-name="rcaron" unicode="&#x159;" horiz-adv-x="453" 
d="M486 509l-36 -149q-17 10 -40.5 15.5t-47.5 5.5q-33 0 -62.5 -15t-47.5 -38l-75 -328h-150l90 388q2 10 2 15q0 17 -11 26.5t-33 9.5h-13l12 51l208 33l-36 -164q48 83 89 123.5t91 40.5q32 0 60 -14zM333 693l86 78h116l-182 -176h-69l-99 176h98z" />
    <glyph glyph-name="Sacute" unicode="&#x15a;" horiz-adv-x="601" 
d="M423 524q3 18 3 34q0 48 -22 75t-63 27q-42 0 -67.5 -26t-25.5 -67q0 -32 16.5 -57t41 -43.5t67.5 -44.5q56 -34 90 -61t58.5 -67.5t24.5 -96.5q0 -63 -31 -112t-86.5 -76t-124.5 -27q-67 0 -126.5 25.5t-99 74t-47.5 114.5h184q-1 -7 -1 -17q0 -64 29.5 -101.5
t81.5 -37.5q41 0 65.5 24t24.5 64q0 33 -16.5 58.5t-41.5 44.5t-68 45q-5 4 -9.5 6.5t-7.5 4.5q-76 47 -118.5 97t-42.5 126q0 63 31 109.5t87 72t128 25.5q65 0 122 -21t93 -64.5t36 -107.5h-185zM429 776h-88l127 162h142z" />
    <glyph glyph-name="sacute" unicode="&#x15b;" horiz-adv-x="482" 
d="M310 386q0 43 -20 67t-53 24q-31 0 -47 -17.5t-16 -41.5q0 -21 13 -35.5t29.5 -23t57.5 -27.5q67 -30 108.5 -69.5t41.5 -107.5q0 -74 -53 -120t-140 -46q-57 0 -106.5 20.5t-80 59t-31.5 90.5h152q-2 -16 -2 -26q0 -44 22.5 -71t61.5 -27q33 0 53.5 19t20.5 46t-19 46.5
t-40.5 30t-65.5 29.5q-59 25 -95.5 59t-36.5 96q0 44 21.5 81t64 59t102.5 22q54 0 101.5 -18t77 -51.5t30.5 -78.5h-152q1 5 1 11zM364 756h142l-181 -161h-88z" />
    <glyph glyph-name="Scircumflex" unicode="&#x15c;" horiz-adv-x="601" 
d="M423 524q3 18 3 34q0 48 -22 75t-63 27q-42 0 -67.5 -26t-25.5 -67q0 -32 16.5 -57t41 -43.5t67.5 -44.5q56 -34 90 -61t58.5 -67.5t24.5 -96.5q0 -63 -31 -112t-86.5 -76t-124.5 -27q-67 0 -126.5 25.5t-99 74t-47.5 114.5h184q-1 -7 -1 -17q0 -64 29.5 -101.5
t81.5 -37.5q41 0 65.5 24t24.5 64q0 33 -16.5 58.5t-41.5 44.5t-68 45q-5 4 -9.5 6.5t-7.5 4.5q-76 47 -118.5 97t-42.5 126q0 63 31 109.5t87 72t128 25.5q65 0 122 -21t93 -64.5t36 -107.5h-185zM415 854l-95 -78h-108l182 176h69l99 -176h-89z" />
    <glyph glyph-name="scircumflex" unicode="&#x15d;" horiz-adv-x="482" 
d="M310 386q0 43 -20 67t-53 24q-31 0 -47 -17.5t-16 -41.5q0 -21 13 -35.5t29.5 -23t57.5 -27.5q67 -30 108.5 -69.5t41.5 -107.5q0 -74 -53 -120t-140 -46q-57 0 -106.5 20.5t-80 59t-31.5 90.5h152q-2 -16 -2 -26q0 -44 22.5 -71t61.5 -27q33 0 53.5 19t20.5 46t-19 46.5
t-40.5 30t-65.5 29.5q-59 25 -95.5 59t-36.5 96q0 44 21.5 81t64 59t102.5 22q54 0 101.5 -18t77 -51.5t30.5 -78.5h-152q1 5 1 11zM305 771h69l99 -176h-89l-58 78l-95 -78h-108z" />
    <glyph glyph-name="Scedilla" unicode="&#x15e;" horiz-adv-x="601" 
d="M463 361q34 -27 58.5 -67.5t24.5 -96.5q0 -63 -31 -112t-86.5 -76t-124.5 -27l-9 -30q43 -2 67.5 -20t24.5 -49q0 -39 -32.5 -67.5t-84.5 -28.5q-32 0 -60 11.5t-46 30.5l34 41q32 -34 70 -34q27 0 44.5 13t17.5 32q0 41 -91 40l27 63q-93 11 -158.5 67t-76.5 145h184
q-1 -7 -1 -17q0 -64 29.5 -101.5t81.5 -37.5q41 0 65.5 24t24.5 64q0 33 -16.5 58.5t-41.5 44.5t-68 45q-5 4 -9.5 6.5t-7.5 4.5q-76 47 -118.5 97t-42.5 126q0 63 31 109.5t87 72t128 25.5q65 0 122 -21t93 -64.5t36 -107.5h-185q3 18 3 34q0 48 -22 75t-63 27
q-42 0 -67.5 -26t-25.5 -67q0 -32 16.5 -57t41 -43.5t67.5 -44.5q56 -34 90 -61z" />
    <glyph glyph-name="scedilla" unicode="&#x15f;" horiz-adv-x="482" 
d="M382.5 262.5q41.5 -39.5 41.5 -107.5q0 -74 -53 -120t-140 -46h-2l-11 -37q43 -2 67.5 -20t24.5 -49q0 -39 -32.5 -67.5t-84.5 -28.5q-32 0 -60 11.5t-46 30.5l34 41q32 -34 70 -34q27 0 44.5 13t17.5 32q0 41 -91 40l30 71q-75 9 -126.5 54t-52.5 113h152q-2 -16 -2 -26
q0 -44 22.5 -71t61.5 -27q33 0 53.5 19t20.5 46t-19 46.5t-40.5 30t-65.5 29.5q-59 25 -95.5 59t-36.5 96q0 44 21.5 81t64 59t102.5 22q54 0 101.5 -18t77 -51.5t30.5 -78.5h-152q1 5 1 11q0 43 -20 67t-53 24q-31 0 -47 -17.5t-16 -41.5q0 -21 13 -35.5t29.5 -23
t57.5 -27.5q67 -30 108.5 -69.5z" />
    <glyph glyph-name="Scaron" unicode="&#x160;" horiz-adv-x="601" 
d="M423 524q3 18 3 34q0 48 -22 75t-63 27q-42 0 -67.5 -26t-25.5 -67q0 -32 16.5 -57t41 -43.5t67.5 -44.5q56 -34 90 -61t58.5 -67.5t24.5 -96.5q0 -63 -31 -112t-86.5 -76t-124.5 -27q-67 0 -126.5 25.5t-99 74t-47.5 114.5h184q-1 -7 -1 -17q0 -64 29.5 -101.5
t81.5 -37.5q41 0 65.5 24t24.5 64q0 33 -16.5 58.5t-41.5 44.5t-68 45q-5 4 -9.5 6.5t-7.5 4.5q-76 47 -118.5 97t-42.5 126q0 63 31 109.5t87 72t128 25.5q65 0 122 -21t93 -64.5t36 -107.5h-185zM425 776h-69l-99 176h90l57 -77l95 77h108z" />
    <glyph glyph-name="scaron" unicode="&#x161;" horiz-adv-x="482" 
d="M310 386q0 43 -20 67t-53 24q-31 0 -47 -17.5t-16 -41.5q0 -21 13 -35.5t29.5 -23t57.5 -27.5q67 -30 108.5 -69.5t41.5 -107.5q0 -74 -53 -120t-140 -46q-57 0 -106.5 20.5t-80 59t-31.5 90.5h152q-2 -16 -2 -26q0 -44 22.5 -71t61.5 -27q33 0 53.5 19t20.5 46t-19 46.5
t-40.5 30t-65.5 29.5q-59 25 -95.5 59t-36.5 96q0 44 21.5 81t64 59t102.5 22q54 0 101.5 -18t77 -51.5t30.5 -78.5h-152q1 5 1 11zM311 693l86 78h116l-182 -176h-69l-99 176h98z" />
    <glyph glyph-name="uni0162" unicode="&#x162;" horiz-adv-x="719" 
d="M770 700l-29 -198h-51q-8 142 -120 142h-43l-123 -530q-2 -12 -2 -18q0 -19 13 -29.5t37 -11.5l43 -2l-13 -53h-157l-14 -48q43 -2 67.5 -20t24.5 -49q0 -39 -32.5 -67.5t-84.5 -28.5q-32 0 -60 11.5t-46 30.5l34 41q32 -34 70 -34q27 0 44.5 13t17.5 32q0 41 -91 40
l34 79h-161l13 53l33 2q28 2 47 16.5t26 42.5l123 530h-33q-111 0 -184 -142h-61l60 198h618z" />
    <glyph glyph-name="uni0163" unicode="&#x163;" horiz-adv-x="367" 
d="M192 146q-4 -17 -4 -31q0 -25 14 -36t41 -11q21 0 68 9l-12 -49q-67 -31 -122 -37l-11 -39q43 -2 67.5 -20t24.5 -49q0 -39 -32.5 -67.5t-84.5 -28.5q-32 0 -60 11.5t-46 30.5l34 41q32 -34 70 -34q27 0 44.5 13t17.5 32q0 41 -91 40l29 68q-50 2 -77.5 28.5t-27.5 72.5
q0 19 6 46l76 327h-73l11 50q56 13 104 43.5t98 78.5h49l-29 -122h123l-13 -55h-122z" />
    <glyph glyph-name="Tcaron" unicode="&#x164;" horiz-adv-x="719" 
d="M770 700l-29 -198h-51q-8 142 -120 142h-43l-123 -530q-2 -12 -2 -18q0 -19 13 -29.5t37 -11.5l43 -2l-13 -53h-354l13 53l33 2q28 2 47 16.5t26 42.5l123 530h-33q-111 0 -184 -142h-61l60 198h618zM513 776h-69l-99 176h90l57 -77l95 77h108z" />
    <glyph glyph-name="tcaron" unicode="&#x165;" horiz-adv-x="629" 
d="M299 28q-82 -39 -151 -39q-55 0 -84.5 26t-29.5 75q0 19 6 46l76 327h-73l11 50q56 13 104 43.5t98 78.5h49l-29 -122h123l-13 -55h-122l-72 -312q-4 -17 -4 -31q0 -25 14 -36t41 -11q21 0 68 9zM651.5 706q28.5 -34 28.5 -96q0 -69 -35 -116.5t-86.5 -71t-101.5 -25.5
l14 63q55 8 89 30t34 53q0 14 -6.5 19.5t-15.5 8.5l-12 4l-20 7q-28 10 -41.5 30.5t-13.5 45.5q0 34 23.5 58t65.5 24q49 0 77.5 -34z" />
    <glyph glyph-name="Tbar" unicode="&#x166;" horiz-adv-x="719" 
d="M770 700l-29 -198h-51q-8 142 -120 142h-43l-55 -235h129l-13 -53h-128l-56 -242q-2 -12 -2 -18q0 -19 13 -29.5t37 -11.5l43 -2l-13 -53h-354l13 53l33 2q28 2 47 16.5t26 42.5l56 242h-148l13 53h147l55 235h-33q-111 0 -184 -142h-61l60 198h618z" />
    <glyph glyph-name="tbar" unicode="&#x167;" horiz-adv-x="367" 
d="M264 458l-30 -129h114l-13 -55h-113l-30 -128q-4 -17 -4 -31q0 -25 14 -36t41 -11q21 0 68 9l-12 -49q-82 -39 -151 -39q-55 0 -84.5 26t-29.5 75q0 19 6 46l32 138h-69l13 55h69l31 134h-73l11 50q56 13 104 43.5t98 78.5h49l-29 -122h123l-13 -55h-122z" />
    <glyph glyph-name="Utilde" unicode="&#x168;" horiz-adv-x="802" 
d="M884 700l-12 -53l-26 -2q-34 -3 -55.5 -24t-29.5 -55l-75 -324q-30 -130 -112.5 -195t-193.5 -65q-74 0 -135 28.5t-96.5 83t-35.5 129.5q0 32 8 67l70 296q2 8 2 17q0 18 -12.5 29.5t-37.5 12.5l-33 2l14 53h335l-13 -53l-26 -2q-28 -2 -46.5 -15.5t-25.5 -43.5
l-75 -324q-7 -31 -7 -58q0 -69 40 -107t106 -38q71 0 124 45t74 133l79 329q3 15 3 22q0 25 -14.5 40.5t-37.5 16.5l-47 2l13 53h278zM683 813.5q-29 -37.5 -74 -37.5q-21 0 -38.5 7.5t-38.5 21.5q-16 11 -27.5 16t-22.5 5q-17 0 -30.5 -12t-16.5 -33h-55q1 66 30 103.5
t75 37.5q21 0 38 -7.5t38 -21.5q19 -11 29 -16t22 -5q17 0 30 12t16 36h55q-1 -69 -30 -106.5z" />
    <glyph glyph-name="utilde" unicode="&#x169;" horiz-adv-x="630" 
d="M596 87l-13 -56q-66 -37 -129 -37q-45 0 -71 25.5t-26 77.5q-37 -55 -77.5 -81.5t-90.5 -26.5q-60 0 -93.5 36.5t-33.5 101.5q0 36 11 80l44 179q2 8 2 17q0 34 -44 34h-13l13 51l224 35l-77 -320q-8 -30 -8 -50q0 -57 52 -57q22 0 45.5 10t40.5 27l83 367l155 23
l-81 -349q-1 -4 -5.5 -22.5t-4.5 -34.5q0 -44 42 -44q24 0 55 14zM521 632.5q-29 -37.5 -74 -37.5q-21 0 -38.5 7.5t-39.5 21.5q-16 11 -27.5 16t-22.5 5q-17 0 -30.5 -12t-16.5 -33h-55q1 66 30 103.5t75 37.5q21 0 38.5 -7.5t38.5 -21.5q16 -11 27.5 -16t23.5 -5
q17 0 30 12t16 36h55q-1 -69 -30 -106.5z" />
    <glyph glyph-name="Umacron" unicode="&#x16a;" horiz-adv-x="802" 
d="M884 700l-12 -53l-26 -2q-34 -3 -55.5 -24t-29.5 -55l-75 -324q-30 -130 -112.5 -195t-193.5 -65q-74 0 -135 28.5t-96.5 83t-35.5 129.5q0 32 8 67l70 296q2 8 2 17q0 18 -12.5 29.5t-37.5 12.5l-33 2l14 53h335l-13 -53l-26 -2q-28 -2 -46.5 -15.5t-25.5 -43.5
l-75 -324q-7 -31 -7 -58q0 -69 40 -107t106 -38q71 0 124 45t74 133l79 329q3 15 3 22q0 25 -14.5 40.5t-37.5 16.5l-47 2l13 53h278zM697 872l-21 -96h-299l22 96h298z" />
    <glyph glyph-name="umacron" unicode="&#x16b;" horiz-adv-x="630" 
d="M596 87l-13 -56q-66 -37 -129 -37q-45 0 -71 25.5t-26 77.5q-37 -55 -77.5 -81.5t-90.5 -26.5q-60 0 -93.5 36.5t-33.5 101.5q0 36 11 80l44 179q2 8 2 17q0 34 -44 34h-13l13 51l224 35l-77 -320q-8 -30 -8 -50q0 -57 52 -57q22 0 45.5 10t40.5 27l83 367l155 23
l-81 -349q-1 -4 -5.5 -22.5t-4.5 -34.5q0 -44 42 -44q24 0 55 14zM559 700l-22 -95h-299l23 95h298z" />
    <glyph glyph-name="Ubreve" unicode="&#x16c;" horiz-adv-x="802" 
d="M884 700l-12 -53l-26 -2q-34 -3 -55.5 -24t-29.5 -55l-75 -324q-30 -130 -112.5 -195t-193.5 -65q-74 0 -135 28.5t-96.5 83t-35.5 129.5q0 32 8 67l70 296q2 8 2 17q0 18 -12.5 29.5t-37.5 12.5l-33 2l14 53h335l-13 -53l-26 -2q-28 -2 -46.5 -15.5t-25.5 -43.5
l-75 -324q-7 -31 -7 -58q0 -69 40 -107t106 -38q71 0 124 45t74 133l79 329q3 15 3 22q0 25 -14.5 40.5t-37.5 16.5l-47 2l13 53h278zM674 921q0 -34 -16 -71t-51.5 -63t-89.5 -26q-57 0 -84 28.5t-27 70.5q0 40 22 81h73q-10 -27 -10 -48q0 -44 38 -44q30 0 45.5 26
t15.5 60v6h83q1 -5 1 -20z" />
    <glyph glyph-name="ubreve" unicode="&#x16d;" horiz-adv-x="630" 
d="M596 87l-13 -56q-66 -37 -129 -37q-45 0 -71 25.5t-26 77.5q-37 -55 -77.5 -81.5t-90.5 -26.5q-60 0 -93.5 36.5t-33.5 101.5q0 36 11 80l44 179q2 8 2 17q0 34 -44 34h-13l13 51l224 35l-77 -320q-8 -30 -8 -50q0 -57 52 -57q22 0 45.5 10t40.5 27l83 367l155 23
l-81 -349q-1 -4 -5.5 -22.5t-4.5 -34.5q0 -44 42 -44q24 0 55 14zM521 766q0 -76 -44.5 -123.5t-115.5 -47.5q-56 0 -83.5 28.5t-27.5 69.5q0 43 23 82h73q-11 -29 -11 -48q0 -44 39 -44q30 0 45.5 24t17.5 57v11h83z" />
    <glyph glyph-name="Uring" unicode="&#x16e;" horiz-adv-x="802" 
d="M884 700l-12 -53l-26 -2q-34 -3 -55.5 -24t-29.5 -55l-75 -324q-30 -130 -112.5 -195t-193.5 -65q-74 0 -135 28.5t-96.5 83t-35.5 129.5q0 32 8 67l70 296q2 8 2 17q0 18 -12.5 29.5t-37.5 12.5l-33 2l14 53h335l-13 -53l-26 -2q-28 -2 -46.5 -15.5t-25.5 -43.5
l-75 -324q-7 -31 -7 -58q0 -69 40 -107t106 -38q71 0 124 45t74 133l79 329q3 15 3 22q0 25 -14.5 40.5t-37.5 16.5l-47 2l13 53h278zM456.5 922q28.5 28 70.5 28q44 0 72.5 -28t28.5 -72q0 -43 -28.5 -72t-72.5 -29q-42 0 -70.5 29t-28.5 72q0 44 28.5 72zM564.5 888.5
q-14.5 15.5 -36.5 15.5q-23 0 -37 -15.5t-14 -38.5q0 -24 14 -39t37 -15q22 0 36.5 15.5t14.5 38.5t-14.5 38.5z" />
    <glyph glyph-name="uring" unicode="&#x16f;" horiz-adv-x="630" 
d="M596 87l-13 -56q-66 -37 -129 -37q-45 0 -71 25.5t-26 77.5q-37 -55 -77.5 -81.5t-90.5 -26.5q-60 0 -93.5 36.5t-33.5 101.5q0 36 11 80l44 179q2 8 2 17q0 34 -44 34h-13l13 51l224 35l-77 -320q-8 -30 -8 -50q0 -57 52 -57q22 0 45.5 10t40.5 27l83 367l155 23
l-81 -349q-1 -4 -5.5 -22.5t-4.5 -34.5q0 -44 42 -44q24 0 55 14zM296.5 804.5q34.5 33.5 86.5 33.5t87 -33.5t35 -86.5q0 -54 -34.5 -88.5t-87.5 -34.5t-87 34.5t-34 88.5q0 53 34.5 86.5zM420.5 754q-14.5 14 -37.5 14t-37 -14t-14 -37t14 -38.5t37 -15.5t37.5 15.5
t14.5 38.5t-14.5 37z" />
    <glyph glyph-name="Uhungarumlaut" unicode="&#x170;" horiz-adv-x="802" 
d="M884 700l-12 -53l-26 -2q-34 -3 -55.5 -24t-29.5 -55l-75 -324q-30 -130 -112.5 -195t-193.5 -65q-74 0 -135 28.5t-96.5 83t-35.5 129.5q0 32 8 67l70 296q2 8 2 17q0 18 -12.5 29.5t-37.5 12.5l-33 2l14 53h335l-13 -53l-26 -2q-28 -2 -46.5 -15.5t-25.5 -43.5
l-75 -324q-7 -31 -7 -58q0 -69 40 -107t106 -38q71 0 124 45t74 133l79 329q3 15 3 22q0 25 -14.5 40.5t-37.5 16.5l-47 2l13 53h278zM477 934h101l-90 -158h-83zM626 934h102l-92 -158h-82z" />
    <glyph glyph-name="uhungarumlaut" unicode="&#x171;" horiz-adv-x="630" 
d="M596 87l-13 -56q-66 -37 -129 -37q-45 0 -71 25.5t-26 77.5q-37 -55 -77.5 -81.5t-90.5 -26.5q-60 0 -93.5 36.5t-33.5 101.5q0 36 11 80l44 179q2 8 2 17q0 34 -44 34h-13l13 51l224 35l-77 -320q-8 -30 -8 -50q0 -57 52 -57q22 0 45.5 10t40.5 27l83 367l155 23
l-81 -349q-1 -4 -5.5 -22.5t-4.5 -34.5q0 -44 42 -44q24 0 55 14zM335 752h102l-91 -157h-83zM484 752h102l-91 -157h-82z" />
    <glyph glyph-name="Uogonek" unicode="&#x172;" horiz-adv-x="802" 
d="M884 700l-12 -53l-26 -2q-34 -3 -55.5 -24t-29.5 -55l-75 -324q-30 -130 -112.5 -195t-193.5 -65h-6q-11 -14 -11 -32q0 -23 20 -35t46 -13l-16 -70q-48 5 -79.5 32t-31.5 65q0 32 23 57q-94 15 -153 77t-59 160q0 32 8 67l70 296q2 8 2 17q0 18 -12.5 29.5t-37.5 12.5
l-33 2l14 53h335l-13 -53l-26 -2q-28 -2 -46.5 -15.5t-25.5 -43.5l-75 -324q-7 -31 -7 -58q0 -69 40 -107t106 -38q71 0 124 45t74 133l79 329q3 15 3 22q0 25 -14.5 40.5t-37.5 16.5l-47 2l13 53h278z" />
    <glyph glyph-name="uogonek" unicode="&#x173;" horiz-adv-x="630" 
d="M406 -50q0 -23 20 -35t46 -13l-16 -70q-48 5 -79.5 32t-31.5 65q0 26 14.5 46.5t37.5 32.5q-40 26 -40 89q-37 -55 -77.5 -81.5t-90.5 -26.5q-60 0 -93.5 36.5t-33.5 101.5q0 36 11 80l44 179q2 8 2 17q0 34 -44 34h-13l13 51l224 35l-77 -320q-8 -30 -8 -50
q0 -57 52 -57q22 0 45.5 10t40.5 27l83 367l155 23l-81 -349q-1 -4 -5.5 -22.5t-4.5 -34.5q0 -44 42 -44q24 0 55 14l-13 -56q-66 -37 -129 -37q-8 0 -24 2q-24 -21 -24 -46z" />
    <glyph glyph-name="Wcircumflex" unicode="&#x174;" horiz-adv-x="1047" 
d="M1134 700l-13 -53q-43 -4 -73 -26.5t-55 -66.5l-314 -554h-58l-56 442l-270 -442h-58l-71 578q-4 29 -22.5 46.5t-48.5 22.5l13 53h310l-13 -53q-43 0 -61.5 -12.5t-18.5 -46.5q0 -12 1 -20l30 -354l196 345l-3 19q-4 29 -23 46.5t-47 22.5l13 53h314l-13 -53
q-39 0 -61.5 -16t-22.5 -44l1 -24l29 -332l173 321q20 37 20 58q0 18 -17.5 27t-54.5 10l14 53h260zM678 854l-95 -78h-108l182 176h69l99 -176h-89z" />
    <glyph glyph-name="wcircumflex" unicode="&#x175;" horiz-adv-x="791" 
d="M776 415q0 -81 -63 -183t-198 -232h-83l-31 299l-189 -299h-59l-32 378q-3 35 -14.5 48.5t-37.5 13.5h-17l12 50l203 33l6 -318l118 196l-10 99l150 23l27 -410q45 50 73 121.5t28 122.5q0 62 -43 94l107 72q53 -36 53 -108zM452 771h69l99 -176h-89l-58 78l-95 -78h-108
z" />
    <glyph glyph-name="Ycircumflex" unicode="&#x176;" horiz-adv-x="697" 
d="M784 700l-12 -53q-46 -7 -74 -28t-64 -65l-200 -244l-44 -193q-3 -13 -3 -21q0 -19 12.5 -29.5t36.5 -11.5l43 -2l-13 -53h-354l13 53l33 2q28 2 47 16.5t26 42.5l40 173l-104 291q-22 61 -72 69l13 53h316l-13 -53q-35 0 -57 -15.5t-22 -40.5q0 -7 4 -21l69 -200
l144 185q23 29 23 49q0 21 -20.5 32t-59.5 11l13 53h279zM487 854l-95 -78h-108l182 176h69l99 -176h-89z" />
    <glyph glyph-name="ycircumflex" unicode="&#x177;" horiz-adv-x="575" 
d="M530.5 476.5q17.5 -33.5 17.5 -81.5q0 -102 -69 -236.5t-180 -230t-232 -95.5q-33 0 -68 7.5t-64 21.5l32 127q34 -18 76.5 -27.5t79.5 -9.5q65 0 133 35l-117 392q-10 34 -28 48.5t-46 14.5h-7l11 50l190 31l111 -448q36 43 56 94t20 103q0 97 -74 177l105 74
q36 -13 53.5 -46.5zM334 771h69l99 -176h-89l-58 78l-95 -78h-108z" />
    <glyph glyph-name="Ydieresis" unicode="&#x178;" horiz-adv-x="697" 
d="M784 700l-12 -53q-46 -7 -74 -28t-64 -65l-200 -244l-44 -193q-3 -13 -3 -21q0 -19 12.5 -29.5t36.5 -11.5l43 -2l-13 -53h-354l13 53l33 2q28 2 47 16.5t26 42.5l40 173l-104 291q-22 61 -72 69l13 53h316l-13 -53q-35 0 -57 -15.5t-22 -40.5q0 -7 4 -21l69 -200
l144 185q23 29 23 49q0 21 -20.5 32t-59.5 11l13 53h279zM512.5 898.5q18.5 19.5 50.5 19.5q31 0 49.5 -19.5t18.5 -51.5q0 -33 -19 -52t-51 -19q-30 0 -48.5 19t-18.5 51q0 33 18.5 52.5zM291.5 898q18.5 19 50.5 19q31 0 49 -19t18 -51q0 -33 -18 -52t-49 -19t-50 19.5
t-19 51.5t18.5 51z" />
    <glyph glyph-name="Zacute" unicode="&#x179;" horiz-adv-x="650" 
d="M698 655l-491 -598h113q76 0 134.5 48t93.5 133h58l-76 -238h-544l10 45l489 599h-129q-65 0 -114 -36.5t-77 -105.5h-61l45 198h559zM466 776h-88l127 162h142z" />
    <glyph glyph-name="zacute" unicode="&#x17a;" horiz-adv-x="537" 
d="M481 188l-66 -188h-419l9 37l337 422h-46q-42 0 -70.5 -15t-49 -42t-43.5 -73h-53l43 184h429l-8 -36l-337 -422h61q51 0 88 31.5t75 101.5h50zM420 756h142l-181 -161h-88z" />
    <glyph glyph-name="Zdotaccent" unicode="&#x17b;" horiz-adv-x="650" 
d="M698 655l-491 -598h113q76 0 134.5 48t93.5 133h58l-76 -238h-544l10 45l489 599h-129q-65 0 -114 -36.5t-77 -105.5h-61l45 198h559zM387.5 804.5q-28.5 28.5 -28.5 70.5t28.5 69.5t73.5 27.5q46 0 74.5 -28t28.5 -69q0 -42 -28.5 -70.5t-73.5 -28.5q-46 0 -74.5 28.5z
" />
    <glyph glyph-name="zdotaccent" unicode="&#x17c;" horiz-adv-x="537" 
d="M481 188l-66 -188h-419l9 37l337 422h-46q-42 0 -70.5 -15t-49 -42t-43.5 -73h-53l43 184h429l-8 -36l-337 -422h61q51 0 88 31.5t75 101.5h50zM302.5 623.5q-28.5 28.5 -28.5 70.5t28.5 69.5t73.5 27.5q46 0 74.5 -28t28.5 -69q0 -42 -28.5 -70.5t-73.5 -28.5
q-46 0 -74.5 28.5z" />
    <glyph glyph-name="Zcaron" unicode="&#x17d;" horiz-adv-x="650" 
d="M698 655l-491 -598h113q76 0 134.5 48t93.5 133h58l-76 -238h-544l10 45l489 599h-129q-65 0 -114 -36.5t-77 -105.5h-61l45 198h559zM465 776h-69l-99 176h90l57 -77l95 77h108z" />
    <glyph glyph-name="zcaron" unicode="&#x17e;" horiz-adv-x="537" 
d="M481 188l-66 -188h-419l9 37l337 422h-46q-42 0 -70.5 -15t-49 -42t-43.5 -73h-53l43 184h429l-8 -36l-337 -422h61q51 0 88 31.5t75 101.5h50zM375 693l86 78h116l-182 -176h-69l-99 176h98z" />
    <glyph glyph-name="longs" unicode="&#x17f;" horiz-adv-x="369" 
d="M256.5 635.5q-35.5 -25.5 -35.5 -67.5q0 -29 8.5 -50.5t25.5 -50.5q12 -20 17 -31l-101 -436h-150l105 458h-103l12 55h103l5 22q28 123 98 191t161 68q41 0 86 -13l-32 -146q-21 12 -50.5 19t-57.5 7q-56 0 -91.5 -25.5z" />
    <glyph glyph-name="florin" unicode="&#x192;" horiz-adv-x="640" 
d="M404 559q-36 -25 -36 -65q0 -34 23.5 -46t53.5 -12h111l-12 -55h-121l-11 -45l-8 -32q-23 -99 -52 -161.5t-102 -108.5t-206 -52l17 73q68 12 107 50t56 85t33 119q1 8 5 24l11 48h-113l12 55h113l5 22q28 123 98 191t162 68q40 0 85 -13l-32 -146q-21 12 -50.5 19
t-57.5 7q-55 0 -91 -25z" />
    <glyph glyph-name="Aringacute" unicode="&#x1fa;" horiz-adv-x="766" 
d="M588 957h-70l102 129h113zM445 895.5q27 26.5 67 26.5q42 0 69 -26.5t27 -68.5q0 -41 -27.5 -68t-68.5 -27q-40 0 -67 27t-27 68q0 42 27 68.5zM547.5 864q-13.5 15 -34.5 15t-34.5 -15t-13.5 -37t13.5 -36.5t34.5 -14.5t34.5 14.5t13.5 36.5t-13.5 37zM658.5 78.5
q24.5 -18.5 51.5 -21.5l-13 -57h-329l13 57q42 0 65 17t23 48q0 5 -2 17l-14 90h-232l-56 -92q-10 -16 -10 -31q0 -22 23 -35.5t61 -13.5l-14 -57h-274l13 57q44 7 70.5 25t50.5 55l352 563h98l94 -573q5 -30 29.5 -48.5zM443 290l-38 244l-148 -244h186z" />
    <glyph glyph-name="aringacute" unicode="&#x1fb;" horiz-adv-x="625" 
d="M477 778h-79l114 146h128zM323.5 709.5q25.5 25.5 63.5 25.5q39 0 65 -25.5t26 -64.5t-26 -65t-65 -26q-38 0 -63.5 26t-25.5 65t25.5 64.5zM421 680q-13 14 -33 14q-21 0 -33.5 -14t-12.5 -35t12.5 -35t33.5 -14q20 0 33 14t13 35t-13 35zM591 87l-14 -56
q-30 -16 -64.5 -26.5t-62.5 -10.5q-49 0 -73.5 28.5t-24.5 78.5q-21 -48 -59 -80t-96 -32q-78 0 -121.5 56t-43.5 140q0 78 37 157t103 130t147 51q39 0 70.5 -13.5t51.5 -35.5l6 28l138 21l-81 -350q-10 -42 -10 -58q0 -42 42 -42q24 0 55 14zM408 402q-7 27 -24 46t-46 19
q-41 0 -75.5 -38t-54.5 -95.5t-20 -111.5q0 -49 19.5 -80t59.5 -31q42 0 81 37z" />
    <glyph glyph-name="AEacute" unicode="&#x1fc;" horiz-adv-x="1071" 
d="M981 500v14q0 63 -33.5 96.5t-98.5 33.5h-101l-60 -259h60q50 0 77.5 26.5t40.5 78.5h57l-62 -268h-58q5 19 5 41q0 33 -18 49t-57 16h-58l-48 -207q-3 -12 -3 -21q0 -43 50 -43h52q76 0 134.5 48t93.5 133h58l-76 -238h-577l12 53l23 2q61 6 73 59l24 105h-248l-71 -86
q-18 -22 -18 -42q0 -19 22 -28.5t61 -9.5l-12 -53h-274l12 53q33 4 60.5 23t60.5 58l379 446q18 21 18 35q0 25 -59 30l-32 2l13 53h685l-46 -200h-61zM590 636l-297 -356h213zM779 776h-88l127 162h142z" />
    <glyph glyph-name="aeacute" unicode="&#x1fd;" horiz-adv-x="798" 
d="M656 118.5q31 22.5 51 55.5h47q-25 -80 -85.5 -132.5t-146.5 -52.5q-65 0 -111.5 32t-68.5 87q-41 -59 -97 -89t-108 -30q-53 0 -84.5 30t-31.5 85q0 57 32 93.5t70.5 53t90.5 31.5l31 9q52 16 90 42.5t38 82.5q0 31 -15 46t-42 15q-80 0 -103 -136h-153
q20 83 88.5 132.5t165.5 49.5q61 0 92.5 -19.5t45.5 -53.5q38 36 79.5 54.5t93.5 18.5q72 0 114 -33t42 -86q0 -74 -84 -116t-231 -65q0 -57 31 -92t84 -35q44 0 75 22.5zM537 448.5q-28 -28.5 -46 -75.5t-23 -102q178 38 178 149q0 27 -11.5 42t-35.5 15q-34 0 -62 -28.5z
M291 103q23 14 40 36q-8 22 -8 55q0 17 4 45l6 43q-14 -8 -31.5 -14t-23.5 -8l-19 -7q-29 -10 -53.5 -31t-24.5 -70q0 -35 15.5 -49t42.5 -14q29 0 52 14zM555 756h142l-181 -161h-88z" />
    <glyph glyph-name="Oslashacute" unicode="&#x1fe;" horiz-adv-x="804" 
d="M755 534.5q25 -63.5 25 -137.5q0 -105 -49 -200.5t-140 -155t-210 -59.5q-103 0 -178 46l-43 -55l-39 31l42 55q-47 43 -71.5 106.5t-24.5 136.5q0 105 49 200.5t140 155t211 59.5q99 0 175 -45l44 57l40 -31l-44 -56q48 -44 73 -107.5zM252 172l323 415q-36 74 -109 74
q-65 0 -116.5 -56.5t-79.5 -146.5t-28 -186q0 -57 10 -100zM497.5 96q50.5 57 78.5 147t28 187q0 58 -10 99l-323 -414q18 -37 46 -56.5t65 -19.5q65 0 115.5 57zM508 776h-88l127 162h142z" />
    <glyph glyph-name="oslashacute" unicode="&#x1ff;" horiz-adv-x="593" 
d="M557 293q0 -85 -38.5 -154.5t-106.5 -109.5t-153 -40q-68 0 -118 28l-34 -44l-34 25l34 43q-33 31 -50 76.5t-17 99.5q0 86 38.5 155.5t106.5 110t152 40.5q70 0 121 -30l36 46l33 -28l-34 -44q64 -63 64 -174zM196 156l199 256q-13 65 -54 65q-37 0 -70.5 -49t-54 -123
t-20.5 -144v-5zM325.5 84q33.5 48 54 121t20.5 143l-198 -253q15 -59 54 -59q36 0 69.5 48zM425 756h142l-181 -161h-88z" />
    <glyph glyph-name="uni0218" unicode="&#x218;" horiz-adv-x="601" 
d="M423 524q3 18 3 34q0 48 -22 75t-63 27q-42 0 -67.5 -26t-25.5 -67q0 -32 16.5 -57t41 -43.5t67.5 -44.5q56 -34 90 -61t58.5 -67.5t24.5 -96.5q0 -63 -31 -112t-86.5 -76t-124.5 -27q-67 0 -126.5 25.5t-99 74t-47.5 114.5h184q-1 -7 -1 -17q0 -64 29.5 -101.5
t81.5 -37.5q41 0 65.5 24t24.5 64q0 33 -16.5 58.5t-41.5 44.5t-68 45q-5 4 -9.5 6.5t-7.5 4.5q-76 47 -118.5 97t-42.5 126q0 63 31 109.5t87 72t128 25.5q65 0 122 -21t93 -64.5t36 -107.5h-185zM342.5 -77q28.5 -34 28.5 -96q0 -69 -35 -116.5t-86.5 -71t-101.5 -25.5
l14 63q55 8 89 30t34 53q0 14 -6.5 19.5t-15.5 8.5l-12 4l-20 7q-28 10 -41.5 30.5t-13.5 45.5q0 34 23.5 58t65.5 24q49 0 77.5 -34z" />
    <glyph glyph-name="uni0219" unicode="&#x219;" horiz-adv-x="482" 
d="M310 386q0 43 -20 67t-53 24q-31 0 -47 -17.5t-16 -41.5q0 -21 13 -35.5t29.5 -23t57.5 -27.5q67 -30 108.5 -69.5t41.5 -107.5q0 -74 -53 -120t-140 -46q-57 0 -106.5 20.5t-80 59t-31.5 90.5h152q-2 -16 -2 -26q0 -44 22.5 -71t61.5 -27q33 0 53.5 19t20.5 46t-19 46.5
t-40.5 30t-65.5 29.5q-59 25 -95.5 59t-36.5 96q0 44 21.5 81t64 59t102.5 22q54 0 101.5 -18t77 -51.5t30.5 -78.5h-152q1 5 1 11zM283.5 -77q28.5 -34 28.5 -96q0 -69 -35 -116.5t-86.5 -71t-101.5 -25.5l14 63q55 8 89 30t34 53q0 14 -6.5 19.5t-15.5 8.5l-12 4l-20 7
q-28 10 -41.5 30.5t-13.5 45.5q0 34 23.5 58t65.5 24q49 0 77.5 -34z" />
    <glyph glyph-name="uni021A" unicode="&#x21a;" horiz-adv-x="719" 
d="M770 700l-29 -198h-51q-8 142 -120 142h-43l-123 -530q-2 -12 -2 -18q0 -19 13 -29.5t37 -11.5l43 -2l-13 -53h-354l13 53l33 2q28 2 47 16.5t26 42.5l123 530h-33q-111 0 -184 -142h-61l60 198h618zM379.5 -77q28.5 -34 28.5 -96q0 -69 -35 -116.5t-86.5 -71
t-101.5 -25.5l14 63q55 8 89 30t34 53q0 14 -6.5 19.5t-15.5 8.5l-12 4l-20 7q-28 10 -41.5 30.5t-13.5 45.5q0 34 23.5 58t65.5 24q49 0 77.5 -34z" />
    <glyph glyph-name="uni021B" unicode="&#x21b;" horiz-adv-x="372" 
d="M299 28q-82 -39 -151 -39q-55 0 -84.5 26t-29.5 75q0 19 6 46l76 327h-73l11 50q56 13 104 43.5t98 78.5h49l-29 -122h123l-13 -55h-122l-72 -312q-4 -17 -4 -31q0 -25 14 -36t41 -11q21 0 68 9zM223.5 -77q28.5 -34 28.5 -96q0 -69 -35 -116.5t-86.5 -71t-101.5 -25.5
l14 63q55 8 89 30t34 53q0 14 -6.5 19.5t-15.5 8.5l-12 4l-20 7q-28 10 -41.5 30.5t-13.5 45.5q0 34 23.5 58t65.5 24q49 0 77.5 -34z" />
    <glyph glyph-name="circumflex" unicode="&#x2c6;" horiz-adv-x="350" 
d="M260 771h69l99 -176h-89l-58 78l-95 -78h-108z" />
    <glyph glyph-name="caron" unicode="&#x2c7;" horiz-adv-x="350" 
d="M267 693l86 78h116l-182 -176h-69l-99 176h98z" />
    <glyph glyph-name="uni02C9" unicode="&#x2c9;" horiz-adv-x="299" 
d="M441 871l-22 -95h-299l23 95h298z" />
    <glyph glyph-name="breve" unicode="&#x2d8;" horiz-adv-x="264" 
d="M376 766q0 -76 -44.5 -123.5t-115.5 -47.5q-56 0 -83.5 28.5t-27.5 69.5q0 43 23 82h73q-11 -29 -11 -48q0 -44 39 -44q30 0 45.5 24t17.5 57v11h83z" />
    <glyph glyph-name="dotaccent" unicode="&#x2d9;" horiz-adv-x="211" 
d="M132.5 623.5q-28.5 28.5 -28.5 70.5t28.5 69.5t73.5 27.5q46 0 74.5 -28t28.5 -69q0 -42 -28.5 -70.5t-73.5 -28.5q-46 0 -74.5 28.5z" />
    <glyph glyph-name="ring" unicode="&#x2da;" horiz-adv-x="250" 
d="M144.5 804.5q34.5 33.5 86.5 33.5t87 -33.5t35 -86.5q0 -54 -34.5 -88.5t-87.5 -34.5t-87 34.5t-34 88.5q0 53 34.5 86.5zM268.5 754q-14.5 14 -37.5 14t-37 -14t-14 -37t14 -38.5t37 -15.5t37.5 15.5t14.5 38.5t-14.5 37z" />
    <glyph glyph-name="ogonek" unicode="&#x2db;" horiz-adv-x="136" 
d="M8 -85q20 -12 46 -13l-16 -70q-48 5 -79.5 32t-31.5 65q0 26 15 47t39 33h50q-43 -26 -43 -59q0 -23 20 -35z" />
    <glyph glyph-name="tilde" unicode="&#x2dc;" horiz-adv-x="314" 
d="M389 632.5q-29 -37.5 -74 -37.5q-21 0 -38.5 7.5t-39.5 21.5q-16 11 -27.5 16t-22.5 5q-17 0 -30.5 -12t-16.5 -33h-55q1 66 30 103.5t75 37.5q21 0 38.5 -7.5t38.5 -21.5q16 -11 27.5 -16t23.5 -5q17 0 30 12t16 36h55q-1 -69 -30 -106.5z" />
    <glyph glyph-name="hungarumlaut" unicode="&#x2dd;" horiz-adv-x="287" 
d="M150 752h102l-91 -157h-83zM299 752h102l-91 -157h-82z" />
    <glyph glyph-name="uni0394" unicode="&#x394;" horiz-adv-x="653" 
d="M584 0h-633l12 48l445 652h37l150 -652zM52 57h378l-96 424z" />
    <glyph glyph-name="uni0394" unicode="&#x3b4;" horiz-adv-x="653" 
d="M584 0h-633l12 48l445 652h37l150 -652zM52 57h378l-96 424z" />
    <glyph glyph-name="uni03A9" unicode="&#x3a9;" horiz-adv-x="762" 
d="M725.5 353.5q-37.5 -64.5 -112 -115t-181.5 -74.5l-3 -14h215l-35 -150h-256l45 194q89 44 140.5 130.5t51.5 179.5q0 73 -34.5 115.5t-100.5 42.5q-62 0 -106 -39.5t-66 -104.5t-22 -141q0 -63 17.5 -106.5t53.5 -76.5l-45 -194h-256l35 150h215l3 14q-98 31 -148 96.5
t-50 145.5q0 78 45 149.5t130.5 116.5t200.5 45q96 0 164 -32t102.5 -85t34.5 -116q0 -66 -37.5 -130.5z" />
    <glyph glyph-name="uni03A9" unicode="&#x3c9;" horiz-adv-x="762" 
d="M725.5 353.5q-37.5 -64.5 -112 -115t-181.5 -74.5l-3 -14h215l-35 -150h-256l45 194q89 44 140.5 130.5t51.5 179.5q0 73 -34.5 115.5t-100.5 42.5q-62 0 -106 -39.5t-66 -104.5t-22 -141q0 -63 17.5 -106.5t53.5 -76.5l-45 -194h-256l35 150h215l3 14q-98 31 -148 96.5
t-50 145.5q0 78 45 149.5t130.5 116.5t200.5 45q96 0 164 -32t102.5 -85t34.5 -116q0 -66 -37.5 -130.5z" />
    <glyph glyph-name="uni03BC" unicode="&#x3bc;" horiz-adv-x="629" 
d="M594 87l-12 -56q-32 -18 -65.5 -27.5t-63.5 -9.5q-46 0 -71.5 25.5t-25.5 77.5q-75 -104 -156 -104q-14 0 -31 5l-52 -209h-147l148 597q2 12 2 17q0 16 -11.5 25t-33.5 9h-13l13 51l222 35l-76 -312q-8 -30 -8 -49q0 -26 12.5 -42t41.5 -16q21 0 44.5 10t40.5 27l81 359
l155 23l-79 -344q-1 -5 -6 -26t-5 -36q0 -44 41 -44q25 0 55 14z" />
    <glyph glyph-name="pi" unicode="&#x3c0;" horiz-adv-x="728" 
d="M497 178q-1 -5 -6 -24.5t-5 -35.5q0 -45 42 -45q25 0 55 14l-13 -56q-66 -37 -116 -37q-41 0 -63.5 24.5t-22.5 66.5q0 31 13 85l60 256h-126l-97 -426h-112l97 426h-114l20 87h441q62 0 114.5 10t82.5 26l-22 -93q-29 -14 -73 -21.5t-91 -7.5h-7z" />
    <glyph glyph-name="uni1E02" unicode="&#x1e02;" horiz-adv-x="672" 
d="M578 313q44 -43 44 -103q0 -57 -35.5 -105t-100.5 -76.5t-150 -28.5h-360l13 53l23 2q27 2 47 17t26 42l109 467q4 16 4 26q0 35 -50 38l-33 2l13 53h328q58 0 103 -18.5t70 -51.5t25 -74t-24.5 -81t-73 -68t-116.5 -35q94 -16 138 -59zM349 395q42 0 73.5 22t47.5 56.5
t16 70.5q0 42 -25 71t-70 29h-26l-57 -249h41zM244 121q-3 -12 -3 -21q0 -43 50 -43h18q41 0 72.5 22.5t48.5 59t17 74.5q0 53 -32.5 89t-94.5 36h-26zM344.5 804.5q-28.5 28.5 -28.5 70.5t28.5 69.5t73.5 27.5q46 0 74.5 -28t28.5 -69q0 -42 -28.5 -70.5t-73.5 -28.5
q-46 0 -74.5 28.5z" />
    <glyph glyph-name="uni1E03" unicode="&#x1e03;" horiz-adv-x="607" 
d="M530 464.5q46 -58.5 46 -151.5q0 -80 -36 -154.5t-104.5 -122t-161.5 -47.5q-71 0 -133 28.5t-111 78.5l122 524q2 8 2 15q0 16 -11.5 26t-33.5 10h-13l13 51l223 35l-72 -314q25 36 63 58t85 22q76 0 122 -58.5zM340 73q36 38 55.5 96.5t19.5 116.5q0 62 -24.5 100.5
t-75.5 38.5q-36 0 -63 -18l-74 -320q9 -24 29.5 -38t49.5 -14q47 0 83 38zM455.5 623.5q-28.5 28.5 -28.5 70.5t28.5 69.5t73.5 27.5q46 0 74.5 -28t28.5 -69q0 -42 -28.5 -70.5t-73.5 -28.5q-46 0 -74.5 28.5z" />
    <glyph glyph-name="uni1E0A" unicode="&#x1e0a;" horiz-adv-x="778" 
d="M613 660q70 -40 107 -107.5t37 -149.5q0 -104 -54.5 -196.5t-151.5 -149.5t-220 -57h-355l13 53l23 2q27 2 47 17t26 42l109 467q4 16 4 26q0 35 -50 38l-33 2l13 53h319q96 0 166 -40zM454 102q59 45 93.5 122.5t34.5 169.5q0 71 -21.5 128t-61.5 89.5t-95 32.5h-39
l-121 -523q-3 -12 -3 -21q0 -43 50 -43h34q70 0 129 45zM372.5 804.5q-28.5 28.5 -28.5 70.5t28.5 69.5t73.5 27.5q46 0 74.5 -28t28.5 -69q0 -42 -28.5 -70.5t-73.5 -28.5q-46 0 -74.5 28.5z" />
    <glyph glyph-name="uni1E0B" unicode="&#x1e0b;" horiz-adv-x="666" 
d="M497 116q0 -20 8.5 -31.5t30.5 -11.5q25 0 56 14l-14 -56q-30 -16 -64.5 -26.5t-62.5 -10.5q-49 0 -73.5 28t-25.5 79q-20 -48 -58 -80t-97 -32q-78 0 -121.5 56t-43.5 139q0 79 37.5 158t103.5 130t147 51q67 0 107 -35l31 132q2 10 2 16q0 35 -43 35h-13l12 51l223 35
l-134 -584q-8 -34 -8 -57zM408 402q-6 28 -23 46.5t-46 18.5q-40 0 -75 -38.5t-55 -96t-20 -111.5q0 -49 18.5 -79.5t60.5 -30.5t81 37zM185.5 623.5q-28.5 28.5 -28.5 70.5t28.5 69.5t73.5 27.5q46 0 74.5 -28t28.5 -69q0 -42 -28.5 -70.5t-73.5 -28.5q-46 0 -74.5 28.5z
" />
    <glyph glyph-name="uni1E1E" unicode="&#x1e1e;" horiz-adv-x="648" 
d="M705 700l-46 -200h-57q0 70 -34 107t-102 37h-101l-59 -259h59q50 0 77.5 26.5t40.5 78.5h57l-61 -268h-58q5 25 5 40q0 66 -76 66h-59l-49 -214q-2 -8 -2 -17q0 -19 13 -30t37 -12l52 -2l-12 -53h-354l13 53l20 2q64 7 76 59l110 472q2 10 2 16q0 40 -49 43l-33 2l13 53
h577zM397.5 804.5q-28.5 28.5 -28.5 70.5t28.5 69.5t73.5 27.5q46 0 74.5 -28t28.5 -69q0 -42 -28.5 -70.5t-73.5 -28.5q-46 0 -74.5 28.5z" />
    <glyph glyph-name="uni1E1F" unicode="&#x1e1f;" horiz-adv-x="379" 
d="M376.5 889q-24.5 25 -24.5 61t25 60.5t64 24.5q40 0 65 -24.5t25 -60.5t-25 -61t-65 -25t-64.5 25zM267 636q-36 -25 -36 -65q0 -34 23.5 -46t53.5 -12h111l-12 -55h-121l-105 -458h-150l105 458h-113l12 55h113l5 22q28 123 98 191t162 68q40 0 85 -13l-32 -146
q-21 12 -50.5 19t-57.5 7q-55 0 -91 -25z" />
    <glyph glyph-name="uni1E40" unicode="&#x1e40;" horiz-adv-x="941" 
d="M521.5 804.5q-28.5 28.5 -28.5 70.5t28.5 69.5t73.5 27.5q46 0 74.5 -28t28.5 -69q0 -42 -28.5 -70.5t-73.5 -28.5q-46 0 -74.5 28.5zM1008 700l-12 -53l-23 -2q-30 -5 -48.5 -18.5t-24.5 -40.5l-109 -464q-4 -16 -4 -23q0 -41 50 -44l32 -2l-13 -53h-333l13 53l22 2
q62 6 74 59l105 448l-334 -551h-58l-84 549l-97 -422q-4 -18 -4 -28q0 -22 13.5 -38t36.5 -17l48 -2l-13 -53h-279l13 53l27 2q31 3 53.5 25t30.5 54l105 452q2 10 2 16q0 40 -50 43l-32 2l12 53h273l68 -470l270 470h270z" />
    <glyph glyph-name="uni1E41" unicode="&#x1e41;" horiz-adv-x="946" 
d="M912 87l-13 -56q-31 -17 -65 -27t-65 -10q-51 0 -77.5 26.5t-26.5 76.5q0 31 10 68l40 154q7 27 7 46q0 28 -14 43t-37 15t-50.5 -14.5t-51.5 -38.5l-84 -370h-150l73 319q6 27 6 45q0 28 -13 43.5t-37 15.5q-23 0 -50.5 -14t-51.5 -39l-84 -370h-150l89 388q2 10 2 15
q0 36 -44 36h-13l12 51l208 33l-27 -117q40 57 90 87t99 30q48 0 80.5 -29.5t37.5 -86.5q41 57 90 86.5t97 29.5q56 0 90 -37t34 -99q0 -30 -12 -78l-35 -136q-2 -6 -6.5 -23.5t-4.5 -33.5q0 -43 42 -43q25 0 55 14zM499.5 623.5q-28.5 28.5 -28.5 70.5t28.5 69.5t73.5 27.5
q46 0 74.5 -28t28.5 -69q0 -42 -28.5 -70.5t-73.5 -28.5q-46 0 -74.5 28.5z" />
    <glyph glyph-name="uni1E56" unicode="&#x1e56;" horiz-adv-x="671" 
d="M578.5 676q52.5 -24 78.5 -64t26 -87q0 -58 -37 -112t-109.5 -88t-171.5 -34h-82l-41 -177q-2 -10 -2 -16q0 -20 13.5 -31t36.5 -12l42 -2l-12 -53h-344l13 53l22 2q27 2 47.5 17t26.5 42l110 472q3 12 3 22q0 22 -15 29t-35 8l-33 2l13 53h324q74 0 126.5 -24zM296 347
h33q56 0 97 26.5t62.5 68t21.5 84.5q0 50 -30 84t-86 34h-29zM356.5 804.5q-28.5 28.5 -28.5 70.5t28.5 69.5t73.5 27.5q46 0 74.5 -28t28.5 -69q0 -42 -28.5 -70.5t-73.5 -28.5q-46 0 -74.5 28.5z" />
    <glyph glyph-name="uni1E57" unicode="&#x1e57;" horiz-adv-x="625" 
d="M507 499q40 -24 63.5 -71t23.5 -114q0 -79 -34.5 -151.5t-101 -117.5t-157.5 -45q-67 0 -117 33l-54 -234h-149l136 589q2 12 2 17q0 34 -44 34h-13l13 51l207 33l-20 -89q26 41 68.5 65t89.5 24t87 -24zM360.5 81.5q35.5 35.5 54.5 91t19 113.5q0 65 -25.5 102t-73.5 37
q-32 0 -64 -18l-72 -309q9 -23 29.5 -37.5t50.5 -14.5q46 0 81.5 35.5zM369.5 623.5q-28.5 28.5 -28.5 70.5t28.5 69.5t73.5 27.5q46 0 74.5 -28t28.5 -69q0 -42 -28.5 -70.5t-73.5 -28.5q-46 0 -74.5 28.5z" />
    <glyph glyph-name="uni1E60" unicode="&#x1e60;" horiz-adv-x="601" 
d="M423 524q3 18 3 34q0 48 -22 75t-63 27q-42 0 -67.5 -26t-25.5 -67q0 -32 16.5 -57t41 -43.5t67.5 -44.5q56 -34 90 -61t58.5 -67.5t24.5 -96.5q0 -63 -31 -112t-86.5 -76t-124.5 -27q-67 0 -126.5 25.5t-99 74t-47.5 114.5h184q-1 -7 -1 -17q0 -64 29.5 -101.5
t81.5 -37.5q41 0 65.5 24t24.5 64q0 33 -16.5 58.5t-41.5 44.5t-68 45q-5 4 -9.5 6.5t-7.5 4.5q-76 47 -118.5 97t-42.5 126q0 63 31 109.5t87 72t128 25.5q65 0 122 -21t93 -64.5t36 -107.5h-185zM360.5 804.5q-28.5 28.5 -28.5 70.5t28.5 69.5t73.5 27.5q46 0 74.5 -28
t28.5 -69q0 -42 -28.5 -70.5t-73.5 -28.5q-46 0 -74.5 28.5z" />
    <glyph glyph-name="uni1E61" unicode="&#x1e61;" horiz-adv-x="482" 
d="M310 386q0 43 -20 67t-53 24q-31 0 -47 -17.5t-16 -41.5q0 -21 13 -35.5t29.5 -23t57.5 -27.5q67 -30 108.5 -69.5t41.5 -107.5q0 -74 -53 -120t-140 -46q-57 0 -106.5 20.5t-80 59t-31.5 90.5h152q-2 -16 -2 -26q0 -44 22.5 -71t61.5 -27q33 0 53.5 19t20.5 46t-19 46.5
t-40.5 30t-65.5 29.5q-59 25 -95.5 59t-36.5 96q0 44 21.5 81t64 59t102.5 22q54 0 101.5 -18t77 -51.5t30.5 -78.5h-152q1 5 1 11zM252.5 623.5q-28.5 28.5 -28.5 70.5t28.5 69.5t73.5 27.5q46 0 74.5 -28t28.5 -69q0 -42 -28.5 -70.5t-73.5 -28.5q-46 0 -74.5 28.5z" />
    <glyph glyph-name="uni1E6A" unicode="&#x1e6a;" horiz-adv-x="719" 
d="M770 700l-29 -198h-51q-8 142 -120 142h-43l-123 -530q-2 -12 -2 -18q0 -19 13 -29.5t37 -11.5l43 -2l-13 -53h-354l13 53l33 2q28 2 47 16.5t26 42.5l123 530h-33q-111 0 -184 -142h-61l60 198h618zM423.5 804.5q-28.5 28.5 -28.5 70.5t28.5 69.5t73.5 27.5
q46 0 74.5 -28t28.5 -69q0 -42 -28.5 -70.5t-73.5 -28.5q-46 0 -74.5 28.5z" />
    <glyph glyph-name="uni1E6B" unicode="&#x1e6b;" horiz-adv-x="367" 
d="M299 28q-82 -39 -151 -39q-55 0 -84.5 26t-29.5 75q0 19 6 46l76 327h-73l11 50q56 13 104 43.5t98 78.5h49l-29 -122h123l-13 -55h-122l-72 -312q-4 -17 -4 -31q0 -25 14 -36t41 -11q21 0 68 9zM242.5 728.5q-28.5 28.5 -28.5 70.5t28.5 69.5t73.5 27.5q46 0 74.5 -28
t28.5 -69q0 -42 -28.5 -70.5t-73.5 -28.5q-46 0 -74.5 28.5z" />
    <glyph glyph-name="Wgrave" unicode="&#x1e80;" horiz-adv-x="1047" 
d="M1134 700l-13 -53q-43 -4 -73 -26.5t-55 -66.5l-314 -554h-58l-56 442l-270 -442h-58l-71 578q-4 29 -22.5 46.5t-48.5 22.5l13 53h310l-13 -53q-43 0 -61.5 -12.5t-18.5 -46.5q0 -12 1 -20l30 -354l196 345l-3 19q-4 29 -23 46.5t-47 22.5l13 53h314l-13 -53
q-39 0 -61.5 -16t-22.5 -44l1 -24l29 -332l173 321q20 37 20 58q0 18 -17.5 27t-54.5 10l14 53h260zM527 937h117l43 -161h-76z" />
    <glyph glyph-name="wgrave" unicode="&#x1e81;" horiz-adv-x="791" 
d="M776 415q0 -81 -63 -183t-198 -232h-83l-31 299l-189 -299h-59l-32 378q-3 35 -14.5 48.5t-37.5 13.5h-17l12 50l203 33l6 -318l118 196l-10 99l150 23l27 -410q45 50 73 121.5t28 122.5q0 62 -43 94l107 72q53 -36 53 -108zM350 756h117l43 -161h-76z" />
    <glyph glyph-name="Wacute" unicode="&#x1e82;" horiz-adv-x="1047" 
d="M1134 700l-13 -53q-43 -4 -73 -26.5t-55 -66.5l-314 -554h-58l-56 442l-270 -442h-58l-71 578q-4 29 -22.5 46.5t-48.5 22.5l13 53h310l-13 -53q-43 0 -61.5 -12.5t-18.5 -46.5q0 -12 1 -20l30 -354l196 345l-3 19q-4 29 -23 46.5t-47 22.5l13 53h314l-13 -53
q-39 0 -61.5 -16t-22.5 -44l1 -24l29 -332l173 321q20 37 20 58q0 18 -17.5 27t-54.5 10l14 53h260zM687 776h-88l127 162h142z" />
    <glyph glyph-name="wacute" unicode="&#x1e83;" horiz-adv-x="791" 
d="M776 415q0 -81 -63 -183t-198 -232h-83l-31 299l-189 -299h-59l-32 378q-3 35 -14.5 48.5t-37.5 13.5h-17l12 50l203 33l6 -318l118 196l-10 99l150 23l27 -410q45 50 73 121.5t28 122.5q0 62 -43 94l107 72q53 -36 53 -108zM554 756h142l-181 -161h-88z" />
    <glyph glyph-name="Wdieresis" unicode="&#x1e84;" horiz-adv-x="1047" 
d="M1134 700l-13 -53q-43 -4 -73 -26.5t-55 -66.5l-314 -554h-58l-56 442l-270 -442h-58l-71 578q-4 29 -22.5 46.5t-48.5 22.5l13 53h310l-13 -53q-43 0 -61.5 -12.5t-18.5 -46.5q0 -12 1 -20l30 -354l196 345l-3 19q-4 29 -23 46.5t-47 22.5l13 53h314l-13 -53
q-39 0 -61.5 -16t-22.5 -44l1 -24l29 -332l173 321q20 37 20 58q0 18 -17.5 27t-54.5 10l14 53h260zM714.5 898.5q18.5 19.5 50.5 19.5q31 0 49.5 -19.5t18.5 -51.5q0 -33 -19 -52t-51 -19q-30 0 -48.5 19t-18.5 51q0 33 18.5 52.5zM493.5 898q18.5 19 50.5 19q31 0 49 -19
t18 -51q0 -33 -18 -52t-49 -19t-50 19.5t-19 51.5t18.5 51z" />
    <glyph glyph-name="wdieresis" unicode="&#x1e85;" horiz-adv-x="791" 
d="M776 415q0 -81 -63 -183t-198 -232h-83l-31 299l-189 -299h-59l-32 378q-3 35 -14.5 48.5t-37.5 13.5h-17l12 50l203 33l6 -318l118 196l-10 99l150 23l27 -410q45 50 73 121.5t28 122.5q0 62 -43 94l107 72q53 -36 53 -108zM536 737.5q19 19.5 50 19.5t50 -19.5
t19 -51.5q0 -33 -18.5 -52t-50.5 -19q-31 0 -50 19t-19 52q0 32 19 51.5zM327.5 737q18.5 19 50.5 19q31 0 49.5 -19t18.5 -51t-18.5 -51.5t-49.5 -19.5t-50 19.5t-19 51.5t18.5 51z" />
    <glyph glyph-name="Ygrave" unicode="&#x1ef2;" horiz-adv-x="697" 
d="M784 700l-12 -53q-46 -7 -74 -28t-64 -65l-200 -244l-44 -193q-3 -13 -3 -21q0 -19 12.5 -29.5t36.5 -11.5l43 -2l-13 -53h-354l13 53l33 2q28 2 47 16.5t26 42.5l40 173l-104 291q-22 61 -72 69l13 53h316l-13 -53q-35 0 -57 -15.5t-22 -40.5q0 -7 4 -21l69 -200
l144 185q23 29 23 49q0 21 -20.5 32t-59.5 11l13 53h279zM323 937h117l43 -161h-76z" />
    <glyph glyph-name="ygrave" unicode="&#x1ef3;" horiz-adv-x="575" 
d="M530.5 476.5q17.5 -33.5 17.5 -81.5q0 -102 -69 -236.5t-180 -230t-232 -95.5q-33 0 -68 7.5t-64 21.5l32 127q34 -18 76.5 -27.5t79.5 -9.5q65 0 133 35l-117 392q-10 34 -28 48.5t-46 14.5h-7l11 50l190 31l111 -448q36 43 56 94t20 103q0 97 -74 177l105 74
q36 -13 53.5 -46.5zM196 756h117l43 -161h-76z" />
    <glyph glyph-name="endash" unicode="&#x2013;" horiz-adv-x="567" 
d="M53 266l17 77h466l-17 -77h-466z" />
    <glyph glyph-name="emdash" unicode="&#x2014;" horiz-adv-x="1034" 
d="M53 266l18 77h933l-18 -77h-933z" />
    <glyph glyph-name="quoteleft" unicode="&#x2018;" horiz-adv-x="304" 
d="M160.5 426q-28.5 34 -28.5 96q0 69 35 116.5t86.5 71t101.5 25.5l-14 -63q-55 -8 -89 -30t-34 -53q0 -14 6.5 -19.5t15.5 -8.5l12 -4l20 -7q28 -10 41.5 -30.5t13.5 -45.5q0 -34 -23.5 -58t-65.5 -24q-49 0 -77.5 34z" />
    <glyph glyph-name="quoteright" unicode="&#x2019;" horiz-adv-x="304" 
d="M326.5 706q28.5 -34 28.5 -96q0 -69 -35 -116.5t-86.5 -71t-101.5 -25.5l14 63q55 8 89 30t34 53q0 14 -6.5 19.5t-15.5 8.5l-12 4l-20 7q-28 10 -41.5 30.5t-13.5 45.5q0 34 23.5 58t65.5 24q49 0 77.5 -34z" />
    <glyph glyph-name="quotesinglbase" unicode="&#x201a;" horiz-adv-x="304" 
d="M198.5 152q28.5 -34 28.5 -96q0 -69 -35 -116.5t-86.5 -71t-101.5 -25.5l14 63q55 8 89 30t34 53q0 14 -6.5 19.5t-15.5 8.5l-12 4l-20 7q-28 10 -41.5 30.5t-13.5 45.5q0 34 23.5 58t65.5 24q49 0 77.5 -34z" />
    <glyph glyph-name="quotedblleft" unicode="&#x201c;" horiz-adv-x="548" 
d="M160.5 426q-28.5 34 -28.5 96q0 69 35 116.5t86.5 71t101.5 25.5l-14 -63q-55 -8 -89 -30t-34 -53q0 -14 6.5 -19.5t15.5 -8.5l12 -4l20 -7q28 -10 41.5 -30.5t13.5 -45.5q0 -34 -23.5 -58t-65.5 -24q-49 0 -77.5 34zM404.5 426q-28.5 34 -28.5 96q0 69 35 116.5t86.5 71
t101.5 25.5l-14 -63q-55 -8 -89 -30t-34 -53q0 -14 6.5 -19.5t15.5 -8.5l12 -4l20 -7q28 -10 41.5 -30.5t13.5 -45.5q0 -34 -23.5 -58t-65.5 -24q-49 0 -77.5 34z" />
    <glyph glyph-name="quotedblright" unicode="&#x201d;" horiz-adv-x="548" 
d="M326.5 706q28.5 -34 28.5 -96q0 -69 -35 -116.5t-86.5 -71t-101.5 -25.5l14 63q55 8 89 30t34 53q0 14 -6.5 19.5t-15.5 8.5l-12 4l-20 7q-28 10 -41.5 30.5t-13.5 45.5q0 34 23.5 58t65.5 24q49 0 77.5 -34zM570.5 706q28.5 -34 28.5 -96q0 -69 -35 -116.5t-86.5 -71
t-101.5 -25.5l14 63q55 8 89 30t34 53q0 14 -6.5 19.5t-15.5 8.5l-12 4l-20 7q-28 10 -41.5 30.5t-13.5 45.5q0 34 23.5 58t65.5 24q49 0 77.5 -34z" />
    <glyph glyph-name="quotedblbase" unicode="&#x201e;" horiz-adv-x="548" 
d="M198.5 152q28.5 -34 28.5 -96q0 -69 -35 -116.5t-86.5 -71t-101.5 -25.5l14 63q55 8 89 30t34 53q0 14 -6.5 19.5t-15.5 8.5l-12 4l-20 7q-28 10 -41.5 30.5t-13.5 45.5q0 34 23.5 58t65.5 24q49 0 77.5 -34zM442.5 152q28.5 -34 28.5 -96q0 -69 -35 -116.5t-86.5 -71
t-101.5 -25.5l14 63q55 8 89 30t34 53q0 14 -6.5 19.5t-15.5 8.5l-12 4l-20 7q-28 10 -41.5 30.5t-13.5 45.5q0 34 23.5 58t65.5 24q49 0 77.5 -34z" />
    <glyph glyph-name="dagger" unicode="&#x2020;" horiz-adv-x="530" 
d="M82 395l24 104h163l47 201h103l-47 -201h164l-24 -104h-164l-113 -488h-103l113 488h-163z" />
    <glyph glyph-name="daggerdbl" unicode="&#x2021;" horiz-adv-x="531" 
d="M302 176h159l-23 -104h-159l-38 -165h-105l39 165h-158l23 104h158l60 254h-158l23 103h158l39 167h104l-39 -167h159l-23 -103h-160z" />
    <glyph glyph-name="bullet" unicode="&#x2022;" horiz-adv-x="406" 
d="M163 258q-35 20 -54 54t-19 75t19.5 74t54.5 52t79 19q46 0 81 -19.5t54 -52.5t19 -73q0 -41 -19 -75t-54 -54t-80 -20q-46 0 -81 20z" />
    <glyph glyph-name="ellipsis" unicode="&#x2026;" horiz-adv-x="988" 
d="M55.5 18.5q-28.5 28.5 -28.5 70.5t28.5 69.5t73.5 27.5q46 0 74.5 -28t28.5 -69q0 -42 -28.5 -70.5t-73.5 -28.5q-46 0 -74.5 28.5zM381.5 18.5q-28.5 28.5 -28.5 70.5t28.5 69.5t73.5 27.5q46 0 74.5 -28t28.5 -69q0 -42 -28.5 -70.5t-73.5 -28.5q-46 0 -74.5 28.5z
M707.5 18.5q-28.5 28.5 -28.5 70.5t28.5 69.5t73.5 27.5q46 0 74.5 -28t28.5 -69q0 -42 -28.5 -70.5t-73.5 -28.5q-46 0 -74.5 28.5z" />
    <glyph glyph-name="perthousand" unicode="&#x2030;" horiz-adv-x="1354" 
d="M228 0h-82l602 700h82zM454 673.5q45 -38.5 45 -104.5q0 -52 -28 -95t-77.5 -67.5t-112.5 -24.5q-79 0 -123.5 39t-44.5 105q0 52 27.5 94.5t77 67t111.5 24.5q80 0 125 -38.5zM338 477.5q20 49.5 20 124.5q0 36 -7.5 50t-26.5 14q-30 0 -50 -49t-20 -125q0 -37 7 -50.5
t27 -13.5q30 0 50 49.5zM856 288.5q45 -38.5 45 -104.5q0 -52 -28 -95t-77.5 -67.5t-112.5 -24.5q-79 0 -123.5 39t-44.5 105q0 52 27.5 94.5t77 67t111.5 24.5q80 0 125 -38.5zM740 92.5q20 49.5 20 124.5q0 36 -7.5 50t-26.5 14q-30 0 -50 -49t-20 -125q0 -37 7 -50.5
t27 -13.5q30 0 50 49.5zM1265 288.5q45 -38.5 45 -104.5q0 -52 -28 -95t-77.5 -67.5t-112.5 -24.5q-79 0 -123.5 39t-44.5 105q0 52 27.5 94.5t77 67t111.5 24.5q80 0 125 -38.5zM1149 92.5q20 49.5 20 124.5q0 36 -7.5 50t-26.5 14q-30 0 -50 -49t-20 -125q0 -37 7 -50.5
t27 -13.5q30 0 50 49.5z" />
    <glyph glyph-name="guilsinglleft" unicode="&#x2039;" horiz-adv-x="299" 
d="M158 261l53 -170l-47 -28l-146 186l13 52l218 186l42 -43z" />
    <glyph glyph-name="guilsinglright" unicode="&#x203a;" horiz-adv-x="300" 
d="M155 310l-53 170l47 28l146 -186l-13 -52l-218 -186l-42 43z" />
    <glyph glyph-name="fraction" unicode="&#x2044;" horiz-adv-x="623" 
d="M73 0h-82l602 700h82z" />
    <glyph glyph-name="Euro" unicode="&#x20ac;" horiz-adv-x="640" 
d="M477 496q4 40 4 57q0 94 -55 94q-46 0 -86 -59.5t-63 -148.5h192l-8 -42h-193q-8 -45 -8 -83h192l-9 -41h-182q6 -70 38 -111t91 -41q60 0 106.5 38.5t65.5 96.5h52q-23 -115 -89 -191t-180 -76q-77 0 -128.5 38.5t-76.5 103t-25 142.5h-72l9 41h67q3 43 15 83h-74l9 42
h77q39 114 118 187.5t187 73.5q80 0 138 -44.5t58 -143.5v-16h-170z" />
    <glyph glyph-name="uni2113" unicode="&#x2113;" horiz-adv-x="276" 
d="M229 456l-54 -30l-67 -293q-5 -20 -5 -39q0 -38 27 -38q21 0 45.5 21t55.5 62l23 -21q-48 -69 -93 -99t-90 -30t-70.5 24t-25.5 66q0 13 6 43l57 246l-60 -32l14 52l56 30l33 139q18 77 68 115.5t107 38.5q42 0 71 -21.5t29 -69.5q0 -94 -127 -164zM186 480l9 5
q58 32 82.5 62t24.5 70q0 47 -34 47q-38 0 -51 -56z" />
    <glyph glyph-name="uni2116" unicode="&#x2116;" horiz-adv-x="1281" 
d="M877 700l-13 -53l-25 -2q-34 -3 -55.5 -24t-29.5 -55l-131 -566h-60l-281 520l-88 -378q-5 -21 -5 -31q0 -24 14 -39.5t37 -16.5l47 -2l-13 -53h-278l12 53l27 2q28 2 53 24.5t32 54.5l101 440l-12 21q-17 29 -38 39t-56 13l13 53h237l242 -454l74 320q3 12 3 24
q0 24 -14 39t-37 16l-47 2l13 53h278zM1267 668.5q45 -38.5 45 -104.5q0 -52 -28 -95t-77.5 -67.5t-112.5 -24.5q-79 0 -123.5 39t-44.5 105q0 52 27.5 94.5t77 67t111.5 24.5q80 0 125 -38.5zM1151 472.5q20 49.5 20 124.5q0 36 -7.5 50t-26.5 14q-30 0 -50 -49t-20 -125
q0 -37 7 -50.5t27 -13.5q30 0 50 49.5z" />
    <glyph glyph-name="trademark" unicode="&#x2122;" horiz-adv-x="1017" 
d="M464 613q0 23 -11 34.5t-39 11.5h-36l-63 -270q-3 -12 -3 -18q0 -14 17 -14l40 -2l-9 -39h-222l9 39l30 2q26 2 31 23l66 279h-33q-27 0 -47 -14.5t-35 -53.5l-2 -5h-36l30 114h361l-15 -114h-35l1 9q1 7 1 18zM1070 700l-8 -40l-27 -2q-15 -3 -21.5 -8t-8.5 -14
l-59 -253q-2 -8 -2 -11q0 -15 19 -15l32 -2l-9 -39h-208l11 39l21 2q13 1 20 6.5t10 17.5l51 219l-171 -279h-32l-51 278l-50 -212q-1 -5 -1 -12q0 -16 19 -18l33 -2l-9 -39h-161l8 39l28 2q13 2 22.5 10t13.5 23l57 243l2 12q0 11 -17 13l-35 2l9 40h167l40 -227l139 227
h168z" />
    <glyph glyph-name="estimated" unicode="&#x212e;" horiz-adv-x="519" 
d="M378 27q-53 -39 -125 -39q-58 0 -105.5 26t-76 80.5t-28.5 134.5q0 82 29.5 138t78 83.5t103.5 27.5q50 0 93.5 -22.5t70 -68t26.5 -109.5q0 -31 -3 -48h-323v-120q20 -37 57 -57t83 -20q109 0 171 115l26 -15q-24 -67 -77 -106zM118 273h241v115q-19 26 -47.5 39
t-59.5 13q-42 0 -77.5 -18.5t-56.5 -52.5v-96z" />
    <glyph glyph-name="uni2153" unicode="&#x2153;" horiz-adv-x="1030" 
d="M281 0h-82l602 700h82zM388 307l-10 -44h-306l10 44l77 3q13 1 22 9t12 20l63 278q-21 -7 -47 -10.5t-44 -3.5l10 41q43 0 86 14t74 41h43l-80 -344q-5 -22 -5 -25q0 -11 6.5 -15t18.5 -5zM927.5 281.5q-31.5 -28.5 -90.5 -43.5q42 -14 65.5 -42t23.5 -67t-21 -70.5
t-58 -49t-83 -17.5q-66 0 -107.5 34.5t-46.5 93.5h116q-1 -7 -1 -21q0 -32 12.5 -50t34.5 -18q21 0 35 18.5t14 47.5q0 42 -34 68t-89 28l11 41q64 14 101.5 33.5t37.5 53.5q0 19 -12 29.5t-34 10.5q-27 0 -56 -14.5t-51 -39.5l-30 27q30 47 79.5 74t102.5 27q50 0 81 -24
t31 -64q0 -37 -31.5 -65.5z" />
    <glyph glyph-name="uni2154" unicode="&#x2154;" horiz-adv-x="1072" 
d="M969.5 281.5q-31.5 -28.5 -90.5 -43.5q42 -14 65.5 -42t23.5 -67t-21 -70.5t-58 -49t-83 -17.5q-66 0 -107.5 34.5t-46.5 93.5h116q-1 -7 -1 -21q0 -32 12.5 -50t34.5 -18q21 0 35 18.5t14 47.5q0 42 -34 68t-89 28l11 41q64 14 101.5 33.5t37.5 53.5q0 19 -12 29.5
t-34 10.5q-27 0 -56 -14.5t-51 -39.5l-30 27q30 47 79.5 74t102.5 27q50 0 81 -24t31 -64q0 -37 -31.5 -65.5zM347 0h-82l602 700h82zM104 313l42 33l32 25q57 45 86 70.5t48 55t19 61.5q0 29 -15.5 45.5t-41.5 16.5q-57 0 -98 -69l-33 20q28 61 75 95t103 34q52 0 85 -30.5
t33 -77.5q0 -39 -24 -74.5t-56 -62.5t-81 -62q-16 -10 -30 -21l-23 -17h200l-22 -91h-311z" />
    <glyph glyph-name="uni2155" unicode="&#x2155;" horiz-adv-x="1050" 
d="M388 308l-10 -44h-306l10 44l77 3q13 1 22 9t12 20l63 278q-21 -7 -47 -10.5t-44 -3.5l10 41q43 0 86 14t74 41h43l-80 -344q-5 -22 -5 -25q0 -11 6.5 -15t18.5 -5zM312 0h-82l602 700h82zM987 426l-22 -91h-183l-17 -45q87 -6 134.5 -45t47.5 -106q0 -65 -44 -106
t-119 -41q-66 0 -105.5 33.5t-46.5 94.5h118q-1 -6 -1 -17q0 -33 13 -52.5t35 -19.5q21 0 34.5 18.5t13.5 48.5q0 49 -39 73t-121 26l86 229h216z" />
    <glyph glyph-name="uni2156" unicode="&#x2156;" horiz-adv-x="1062" 
d="M324 0h-82l602 700h82zM999 426l-22 -91h-183l-17 -45q87 -6 134.5 -45t47.5 -106q0 -65 -44 -106t-119 -41q-66 0 -105.5 33.5t-46.5 94.5h118q-1 -6 -1 -17q0 -33 13 -52.5t35 -19.5q21 0 34.5 18.5t13.5 48.5q0 49 -39 73t-121 26l86 229h216zM104 313l42 33l32 25
q57 45 86 70.5t48 55t19 61.5q0 29 -15.5 45.5t-41.5 16.5q-57 0 -98 -69l-33 20q28 61 75 95t103 34q52 0 85 -30.5t33 -77.5q0 -39 -24 -74.5t-56 -62.5t-81 -62q-16 -10 -30 -21l-23 -17h200l-22 -91h-311z" />
    <glyph glyph-name="uni2157" unicode="&#x2157;" horiz-adv-x="1080" 
d="M417.5 546.5q-31.5 -28.5 -90.5 -43.5q42 -14 65.5 -42t23.5 -67t-21 -70.5t-58 -49t-83 -17.5q-66 0 -107.5 34.5t-46.5 93.5h116q-1 -7 -1 -21q0 -32 12.5 -50t34.5 -18q21 0 35 18.5t14 47.5q0 42 -34 68t-89 28l11 41q64 14 101.5 33.5t37.5 53.5q0 19 -12 29.5
t-34 10.5q-27 0 -56 -14.5t-51 -39.5l-30 27q30 47 79.5 74t102.5 27q50 0 81 -24t31 -64q0 -37 -31.5 -65.5zM342 0h-82l602 700h82zM1017 426l-22 -91h-183l-17 -45q87 -6 134.5 -45t47.5 -106q0 -65 -44 -106t-119 -41q-66 0 -105.5 33.5t-46.5 94.5h118q-1 -6 -1 -17
q0 -33 13 -52.5t35 -19.5q21 0 34.5 18.5t13.5 48.5q0 49 -39 73t-121 26l86 229h216z" />
    <glyph glyph-name="uni2158" unicode="&#x2158;" horiz-adv-x="1087" 
d="M468 438l-21 -92h-70l-19 -82h-103l20 82h-184l20 86l253 258h92l-58 -252h70zM181 438h115l35 152zM349 0h-82l602 700h82zM1024 426l-22 -91h-183l-17 -45q87 -6 134.5 -45t47.5 -106q0 -65 -44 -106t-119 -41q-66 0 -105.5 33.5t-46.5 94.5h118q-1 -6 -1 -17
q0 -33 13 -52.5t35 -19.5q21 0 34.5 18.5t13.5 48.5q0 49 -39 73t-121 26l86 229h216z" />
    <glyph glyph-name="uni2159" unicode="&#x2159;" horiz-adv-x="1051" 
d="M301 0h-82l602 700h82zM388 307l-10 -44h-306l10 44l77 3q13 1 22 9t12 20l63 278q-21 -7 -47 -10.5t-44 -3.5l10 41q43 0 86 14t74 41h43l-80 -344q-5 -22 -5 -25q0 -11 6.5 -15t18.5 -5zM829.5 353q-55.5 -39 -80.5 -108q24 22 70 22q60 0 95.5 -34t35.5 -92
q0 -66 -44.5 -107.5t-115.5 -41.5q-74 0 -121 46.5t-47 121.5q0 66 37.5 129.5t111.5 104.5t177 41h18l-10 -43q-71 0 -126.5 -39zM826 188q-18 25 -51 25q-22 0 -39 -10q-5 -24 -5 -56q0 -54 15.5 -85t43.5 -31q24 0 39 24t15 64q0 44 -18 69z" />
    <glyph glyph-name="uni215A" unicode="&#x215a;" horiz-adv-x="1082" 
d="M330 0h-82l602 700h82zM860.5 353q-55.5 -39 -80.5 -108q24 22 70 22q60 0 95.5 -34t35.5 -92q0 -66 -44.5 -107.5t-115.5 -41.5q-74 0 -121 46.5t-47 121.5q0 66 37.5 129.5t111.5 104.5t177 41h18l-10 -43q-71 0 -126.5 -39zM857 188q-18 25 -51 25q-22 0 -39 -10
q-5 -24 -5 -56q0 -54 15.5 -85t43.5 -31q24 0 39 24t15 64q0 44 -18 69zM455 691l-22 -91h-183l-17 -45q87 -6 134.5 -45t47.5 -106q0 -65 -44 -106t-119 -41q-66 0 -105.5 33.5t-46.5 94.5h118q-1 -6 -1 -17q0 -33 13 -52.5t35 -19.5q21 0 34.5 18.5t13.5 48.5q0 49 -39 73
t-121 26l86 229h216z" />
    <glyph glyph-name="oneeighth" unicode="&#x215b;" horiz-adv-x="1076" 
d="M301 0h-82l602 700h82zM388 307l-10 -44h-306l10 44l77 3q13 1 22 9t12 20l63 278q-21 -7 -47 -10.5t-44 -3.5l10 41q43 0 86 14t74 41h43l-80 -344q-5 -22 -5 -25q0 -11 6.5 -15t18.5 -5zM947.5 186.5q23.5 -26.5 23.5 -67.5q0 -58 -47 -92.5t-125 -34.5
q-74 0 -120.5 30.5t-46.5 78.5q0 41 32.5 70.5t91.5 39.5q-31 19 -47.5 43.5t-16.5 58.5q0 56 42 89t112 33q65 0 107 -27.5t42 -70.5q0 -34 -30 -61.5t-85 -40.5q44 -22 67.5 -48.5zM807.5 381.5q-13.5 -14.5 -13.5 -38.5q0 -25 13.5 -43.5t38.5 -35.5q22 17 32.5 38
t10.5 43q0 24 -12.5 37.5t-33.5 13.5q-22 0 -35.5 -14.5zM849.5 46q18.5 17 18.5 43q0 20 -11 36t-25 26t-46 31q-21 -17 -33 -39.5t-12 -46.5q0 -31 16.5 -49t45.5 -18q28 0 46.5 17z" />
    <glyph glyph-name="threeeighths" unicode="&#x215c;" horiz-adv-x="1087" 
d="M417.5 546.5q-31.5 -28.5 -90.5 -43.5q42 -14 65.5 -42t23.5 -67t-21 -70.5t-58 -49t-83 -17.5q-66 0 -107.5 34.5t-46.5 93.5h116q-1 -7 -1 -21q0 -32 12.5 -50t34.5 -18q21 0 35 18.5t14 47.5q0 42 -34 68t-89 28l11 41q64 14 101.5 33.5t37.5 53.5q0 19 -12 29.5
t-34 10.5q-27 0 -56 -14.5t-51 -39.5l-30 27q30 47 79.5 74t102.5 27q50 0 81 -24t31 -64q0 -37 -31.5 -65.5zM312 0h-82l602 700h82zM958.5 186.5q23.5 -26.5 23.5 -67.5q0 -58 -47 -92.5t-125 -34.5q-74 0 -120.5 30.5t-46.5 78.5q0 41 32.5 70.5t91.5 39.5
q-31 19 -47.5 43.5t-16.5 58.5q0 56 42 89t112 33q65 0 107 -27.5t42 -70.5q0 -34 -30 -61.5t-85 -40.5q44 -22 67.5 -48.5zM818.5 381.5q-13.5 -14.5 -13.5 -38.5q0 -25 13.5 -43.5t38.5 -35.5q22 17 32.5 38t10.5 43q0 24 -12.5 37.5t-33.5 13.5q-22 0 -35.5 -14.5z
M860.5 46q18.5 17 18.5 43q0 20 -11 36t-25 26t-46 31q-21 -17 -33 -39.5t-12 -46.5q0 -31 16.5 -49t45.5 -18q28 0 46.5 17z" />
    <glyph glyph-name="fiveeighths" unicode="&#x215d;" horiz-adv-x="1103" 
d="M455 691l-22 -91h-183l-17 -45q87 -6 134.5 -45t47.5 -106q0 -65 -44 -106t-119 -41q-66 0 -105.5 33.5t-46.5 94.5h118q-1 -6 -1 -17q0 -33 13 -52.5t35 -19.5q21 0 34.5 18.5t13.5 48.5q0 49 -39 73t-121 26l86 229h216zM328 0h-82l602 700h82zM974.5 186.5
q23.5 -26.5 23.5 -67.5q0 -58 -47 -92.5t-125 -34.5q-74 0 -120.5 30.5t-46.5 78.5q0 41 32.5 70.5t91.5 39.5q-31 19 -47.5 43.5t-16.5 58.5q0 56 42 89t112 33q65 0 107 -27.5t42 -70.5q0 -34 -30 -61.5t-85 -40.5q44 -22 67.5 -48.5zM834.5 381.5
q-13.5 -14.5 -13.5 -38.5q0 -25 13.5 -43.5t38.5 -35.5q22 17 32.5 38t10.5 43q0 24 -12.5 37.5t-33.5 13.5q-22 0 -35.5 -14.5zM876.5 46q18.5 17 18.5 43q0 20 -11 36t-25 26t-46 31q-21 -17 -33 -39.5t-12 -46.5q0 -31 16.5 -49t45.5 -18q28 0 46.5 17z" />
    <glyph glyph-name="seveneighths" unicode="&#x215e;" horiz-adv-x="1056" 
d="M489 691l-11 -49l-230 -378h-90l234 336h-243l21 91h319zM281 0h-82l602 700h82zM927.5 186.5q23.5 -26.5 23.5 -67.5q0 -58 -47 -92.5t-125 -34.5q-74 0 -120.5 30.5t-46.5 78.5q0 41 32.5 70.5t91.5 39.5q-31 19 -47.5 43.5t-16.5 58.5q0 56 42 89t112 33
q65 0 107 -27.5t42 -70.5q0 -34 -30 -61.5t-85 -40.5q44 -22 67.5 -48.5zM787.5 381.5q-13.5 -14.5 -13.5 -38.5q0 -25 13.5 -43.5t38.5 -35.5q22 17 32.5 38t10.5 43q0 24 -12.5 37.5t-33.5 13.5q-22 0 -35.5 -14.5zM829.5 46q18.5 17 18.5 43q0 20 -11 36t-25 26t-46 31
q-21 -17 -33 -39.5t-12 -46.5q0 -31 16.5 -49t45.5 -18q28 0 46.5 17z" />
    <glyph glyph-name="arrowleft" unicode="&#x2190;" horiz-adv-x="696" 
d="M201 371q71 76 108 142l63 -42q-26 -48 -70.5 -101.5t-90.5 -82.5h417v-84h-417q45 -29 90 -82.5t71 -102.5l-63 -42q-35 63 -105.5 137t-150.5 131q77 51 148 127z" />
    <glyph glyph-name="arrowup" unicode="&#x2191;" horiz-adv-x="667" 
d="M479 424.5q74 -70.5 137 -105.5l-42 -63q-49 26 -102.5 71t-82.5 90v-417h-84v417q-29 -46 -82.5 -90.5t-101.5 -70.5l-42 63q66 37 142 108t127 148q57 -80 131 -150.5z" />
    <glyph glyph-name="arrowright" unicode="&#x2192;" horiz-adv-x="696" 
d="M497.5 154q-70.5 -74 -105.5 -137l-63 42q26 49 71 102.5t90 82.5h-417v84h417q-46 29 -90.5 82.5t-70.5 101.5l63 42q37 -66 108 -142t148 -127q-80 -57 -150.5 -131z" />
    <glyph glyph-name="arrowdown" unicode="&#x2193;" horiz-adv-x="667" 
d="M207 148q-76 71 -142 108l42 63q48 -26 101.5 -70.5t82.5 -90.5v417h84v-417q29 45 82.5 90t102.5 71l42 -63q-63 -35 -137 -105.5t-131 -150.5q-51 77 -127 148z" />
    <glyph glyph-name="partialdiff" unicode="&#x2202;" horiz-adv-x="642" 
d="M388.5 639.5q102.5 -59.5 154 -153.5t51.5 -199q0 -84 -34.5 -151.5t-101 -107t-157.5 -39.5q-82 0 -137.5 31.5t-83 83t-27.5 111.5q0 62 27.5 112t74.5 79t105 29q89 0 164 -68q-19 117 -89 194.5t-193 85.5v53q144 -1 246.5 -60.5zM398.5 103.5q33.5 67.5 33.5 180.5
q0 26 -3 41q-39 23 -82 23q-62 0 -98.5 -44t-36.5 -119q0 -62 25 -105.5t71 -43.5q57 0 90.5 67.5z" />
    <glyph glyph-name="product" unicode="&#x220f;" horiz-adv-x="727" 
d="M575 114q-2 -7 -2 -18q0 -38 49 -41l33 -2l-13 -53h-314l13 53l8 2q29 8 45.5 20t22.5 39l124 525h-185l-124 -525q-2 -12 -2 -16q0 -19 12.5 -29t37.5 -14l12 -2l-12 -53h-314l13 53l22 2q62 8 74 59l123 525h-85l15 61h676l-14 -61h-92z" />
    <glyph glyph-name="summation" unicode="&#x2211;" horiz-adv-x="733" 
d="M703 500h-61l1 17q0 62 -34.5 94.5t-98.5 32.5h-164l145 -314l-279 -273h176q75 0 134.5 49.5t94.5 134.5h57l-76 -241h-612l10 40l312 316l-137 304l9 40h570z" />
    <glyph glyph-name="minus" unicode="&#x2212;" 
d="M513 242h-412l14 61h412z" />
    <glyph glyph-name="radical" unicode="&#x221a;" horiz-adv-x="669" 
d="M756 700l-11 -49q-42 0 -65.5 -12.5t-44.5 -44.5l-387 -594h-59l-77 424q-4 24 -15.5 32t-38.5 8l11 49h180l48 -332l322 519h137z" />
    <glyph glyph-name="infinity" unicode="&#x221e;" horiz-adv-x="767" 
d="M701.5 469q39.5 -50 39.5 -133q0 -71 -27 -136t-72 -104.5t-96 -39.5q-50 0 -85.5 37.5t-48.5 100.5q-43 -65 -92 -101.5t-118 -36.5q-79 0 -118 50t-39 133q0 71 27 136t71.5 104.5t95.5 39.5q49 0 85.5 -37t49.5 -100q43 65 91.5 101t117.5 36q79 0 118.5 -50z
M656.5 225q37.5 33 37.5 82q0 37 -23.5 57.5t-64.5 20.5q-54 0 -92 -34.5t-78 -100.5q24 -26 58 -42t70 -16q55 0 92.5 33zM271 224q37 34 78 101q-23 26 -57.5 42t-71.5 16q-54 0 -91 -33t-37 -82q0 -37 23 -57.5t64 -20.5q55 0 92 34z" />
    <glyph glyph-name="integral" unicode="&#x222b;" horiz-adv-x="469" 
d="M195 402q24 98 53.5 159t101.5 105.5t203 50.5l-17 -73q-68 -12 -107 -50.5t-56 -84.5t-34 -119q-1 -8 -5 -24l-7 -30l-6 -27q-23 -101 -51.5 -164t-102 -110t-208.5 -53l17 73q65 12 102.5 47.5t55 80t33.5 112.5q3 9 10 38l8 30z" />
    <glyph glyph-name="approxequal" unicode="&#x2248;" 
d="M486.5 374.5q28.5 5.5 50.5 16.5l-14 -60q-42 -21 -104 -21q-29 0 -56.5 6t-32.5 7q-56 15 -99 15q-25 0 -53 -5t-50 -16l14 60q43 20 104 20q22 0 41 -3.5t49 -10.5q28 -7 49.5 -10.5t46.5 -3.5q26 0 54.5 5.5zM450.5 219.5q28.5 5.5 50.5 16.5l-14 -60
q-42 -21 -104 -21q-29 0 -56.5 6t-32.5 7q-56 15 -99 15q-25 0 -53 -5t-49 -16l13 60q44 20 104 20q22 0 41 -3.5t49 -10.5q28 -7 49.5 -10.5t46.5 -3.5q26 0 54.5 5.5z" />
    <glyph glyph-name="notequal" unicode="&#x2260;" 
d="M365 319l-40 -94h174l-14 -61h-185l-52 -122h-58l52 122h-149l14 61h160l40 94h-179l15 61h190l53 126h58l-53 -126h144l-15 -61h-155z" />
    <glyph glyph-name="lessequal" unicode="&#x2264;" 
d="M138 334l10 47l387 205l30 -58l-343 -174l249 -170l-41 -55zM75 61h380l-13 -61h-381z" />
    <glyph glyph-name="greaterequal" unicode="&#x2265;" 
d="M524 379l-10 -47l-387 -205l-30 58l343 174l-249 170l41 55zM81 61h379l-13 -61h-380z" />
    <glyph glyph-name="lozenge" unicode="&#x25ca;" horiz-adv-x="606" 
d="M242 -11q-71 171 -174 347q182 173 334 346q76 -182 173 -346q-187 -179 -333 -347zM160 327q68 -109 105 -214q96 115 217 232q-66 107 -103 214q-88 -105 -219 -232z" />
    <glyph glyph-name="fl" unicode="&#xfb02;" horiz-adv-x="638" 
d="M508 117q0 -44 41 -44q25 0 55 14l-13 -56q-31 -17 -65 -27t-65 -10q-52 0 -78.5 27.5t-26.5 80.5q0 28 9 68l105 448q-15 24 -45.5 37t-64.5 13q-53 0 -91 -25t-38 -69q0 -61 77 -61h101l-12 -55h-111l-105 -458h-150l105 458h-113l12 55h113l5 22q28 123 97.5 191
t161.5 68q41 0 86 -13l-13 -60l163 26l-130 -569q-10 -42 -10 -61z" />
    <glyph glyph-name="f_b" horiz-adv-x="926" 
d="M849 464.5q46 -58.5 46 -151.5q0 -80 -36 -154.5t-104.5 -122t-161.5 -47.5q-71 0 -133 28.5t-111 78.5l121 522q-15 24 -45.5 37t-64.5 13q-53 0 -91 -25t-38 -69q0 -61 77 -61h101l-12 -55h-111l-105 -458h-150l105 458h-113l12 55h113l5 22q28 123 97.5 191t161.5 68
q41 0 86 -13l-13 -60l163 26l-69 -304q25 36 63 58t85 22q76 0 122 -58.5zM659 73q36 38 55.5 96.5t19.5 116.5q0 62 -24.5 100.5t-75.5 38.5q-36 0 -63 -18l-74 -320q9 -24 29.5 -38t49.5 -14q47 0 83 38z" />
    <glyph glyph-name="f_f_b" horiz-adv-x="1226" 
d="M1149 464.5q46 -58.5 46 -151.5q0 -80 -36 -154.5t-104.5 -122t-161.5 -47.5q-71 0 -133 28.5t-111 78.5l121 522q-15 24 -45.5 37t-64.5 13q-53 0 -91 -25t-38 -69q0 -61 77 -61h101l-12 -55h-111l-105 -458h-150l105 458h-150l-105 -458h-150l105 458h-113l12 55h113
l5 22q28 123 98 191t162 68q17 0 47 -4l-31 -139q-38 10 -71 10q-53 0 -90 -24.5t-37 -64.5q0 -34 24 -46.5t53 -12.5h140l5 22q28 123 97.5 191t161.5 68q41 0 86 -13l-13 -60l163 26l-69 -304q25 36 63 58t85 22q76 0 122 -58.5zM959 73q36 38 55.5 96.5t19.5 116.5
q0 62 -24.5 100.5t-75.5 38.5q-36 0 -63 -18l-74 -320q9 -24 29.5 -38t49.5 -14q47 0 83 38z" />
    <glyph glyph-name="f_f_h" horiz-adv-x="1234" 
d="M1200 87l-14 -56q-31 -17 -65 -27t-64 -10q-50 0 -77 26.5t-27 76.5q0 31 10 68l38 144q9 34 9 57q0 26 -11.5 41t-34.5 15q-25 0 -55 -15.5t-46 -36.5l-85 -370h-149l141 618q-15 24 -45.5 37t-64.5 13q-53 0 -91 -25t-38 -69q0 -61 77 -61h101l-12 -55h-111l-105 -458
h-150l105 458h-150l-105 -458h-150l105 458h-113l12 55h113l5 22q28 123 98 191t162 68q17 0 47 -4l-31 -139q-38 10 -71 10q-53 0 -90 -24.5t-37 -64.5q0 -34 24 -46.5t53 -12.5h140l5 22q28 123 97.5 191t161.5 68q41 0 86 -13l-13 -60l163 26l-73 -325q72 101 167 101
q55 0 87.5 -33t32.5 -96q0 -40 -12 -85l-36 -136q-2 -6 -7 -24t-5 -33q0 -43 43 -43q24 0 55 14z" />
    <glyph glyph-name="f_f_k" horiz-adv-x="1248" 
d="M627 0l143 618q-15 24 -45.5 37t-64.5 13q-53 0 -91 -25t-38 -69q0 -61 77 -61h101l-12 -55h-111l-105 -458h-150l105 458h-150l-105 -458h-150l105 458h-113l12 55h113l5 22q28 123 98 191t162 68q17 0 47 -4l-31 -139q-38 10 -71 10q-53 0 -90 -24.5t-37 -64.5
q0 -34 24 -46.5t53 -12.5h140l5 22q28 123 97.5 191t161.5 68q41 0 86 -13l-13 -60l163 26l-170 -747h-151zM1146 384q-20 8 -40 8q-29 0 -53.5 -14t-44.5 -29.5t-26 -20.5l182 -328h-169l-142 255q25 29 73 89q48 61 80 96.5t69 59t75 23.5q35 0 72 -25l-32 -139
q-24 17 -44 25z" />
    <glyph glyph-name="f_h" horiz-adv-x="933" 
d="M899 87l-14 -56q-31 -17 -65 -27t-64 -10q-50 0 -77 26.5t-27 76.5q0 31 10 68l38 144q9 34 9 57q0 26 -11.5 41t-34.5 15q-25 0 -55 -15.5t-46 -36.5l-85 -370h-149l142 618q-15 24 -45.5 37t-64.5 13q-53 0 -91 -25t-38 -69q0 -61 77 -61h101l-12 -55h-111l-105 -458
h-150l105 458h-113l12 55h113l5 22q28 123 97.5 191t161.5 68q41 0 86 -13l-13 -60l163 26l-74 -325q72 101 167 101q55 0 87.5 -33t32.5 -96q0 -40 -12 -85l-36 -136q-2 -6 -7 -24t-5 -33q0 -43 43 -43q24 0 55 14z" />
    <glyph glyph-name="f_k" horiz-adv-x="946" 
d="M327 0l143 618q-15 24 -45.5 37t-64.5 13q-53 0 -91 -25t-38 -69q0 -61 77 -61h101l-12 -55h-111l-105 -458h-150l105 458h-113l12 55h113l5 22q28 123 97.5 191t161.5 68q41 0 86 -13l-13 -60l163 26l-170 -747h-151zM844 384q-20 8 -40 8q-29 0 -53.5 -14t-44.5 -29.5
t-26 -20.5l182 -328h-169l-142 255q25 29 73 89q48 61 80 96.5t69 59t75 23.5q35 0 72 -25l-32 -139q-24 17 -44 25z" />
    <glyph glyph-name="t_t" horiz-adv-x="672" 
d="M569 458l-72 -312q-4 -17 -4 -31q0 -25 14 -36t41 -11q21 0 68 9l-12 -49q-82 -39 -151 -39q-55 0 -84.5 26t-29.5 75q0 19 6 46l75 322h-156l-72 -312q-4 -17 -4 -31q0 -25 14 -36t41 -11q25 0 58 9l-12 -49q-43 -20 -76 -29.5t-65 -9.5q-55 0 -84.5 26t-29.5 75
q0 19 6 46l76 327h-73l11 50q56 13 104 43.5t98 78.5h49l-29 -122h83q56 13 104 43.5t98 78.5h49l-29 -122h123l-13 -55h-122z" />
    <glyph glyph-name="zero.osf" horiz-adv-x="683" 
d="M563 494q71 -68 71 -192q0 -92 -40.5 -163t-112.5 -110.5t-163 -39.5q-119 0 -189.5 68t-70.5 192q0 92 40.5 163t112 110.5t162.5 39.5q119 0 190 -68zM394 86q37 50 57 126.5t20 151.5q0 151 -89 151q-50 0 -87 -50t-57 -126t-20 -151q0 -81 25 -116.5t65 -35.5
q49 0 86 50z" />
    <glyph glyph-name="one.osf" horiz-adv-x="475" 
d="M297 90q0 -36 45 -38l65 -3l-12 -49h-389l12 49l65 3q25 1 42.5 14t23.5 40l77 329q-29 -10 -66 -14.5t-62 -4.5l12 55q62 0 124.5 20.5t105.5 58.5h63l-104 -444z" />
    <glyph glyph-name="two.osf" horiz-adv-x="542" 
d="M190 134h294l-31 -134h-447l16 68l77 54q99 69 144 104.5t71 71t26 74.5q0 40 -23.5 60t-58.5 20t-68.5 -20t-67.5 -60l-39 27q48 80 112 121.5t136 41.5q69 0 118 -36t49 -101q0 -50 -30 -91.5t-73 -72t-116 -74.5l-29 -17z" />
    <glyph glyph-name="three.osf" horiz-adv-x="592" 
d="M444.5 181.5q43.5 -47.5 43.5 -113.5q0 -58 -31.5 -107.5t-90 -79t-134.5 -29.5q-98 0 -166 49.5t-80 144.5h172l-1 -17q0 -62 22.5 -96t62.5 -34q41 0 66 34t25 83q0 70 -56.5 114.5t-147.5 49.5l14 55q104 23 168 56t64 93q0 32 -20 52t-64 20q-47 0 -95 -23.5
t-79 -57.5l-39 32q46 70 122.5 113t162.5 43q58 0 98.5 -19t60.5 -50t20 -67q0 -62 -59 -109.5t-169 -69.5q87 -19 130.5 -66.5z" />
    <glyph glyph-name="four.osf" horiz-adv-x="614" 
d="M548 164l-31 -134h-112l-40 -170h-149l40 170h-293l29 126l401 394h132l-89 -386h112zM287 164l59 259l-262 -259h203z" />
    <glyph glyph-name="five.osf" horiz-adv-x="566" 
d="M209 416l-33 -89q151 -9 227 -74.5t76 -169.5q0 -66 -30.5 -119.5t-88.5 -84t-139 -30.5q-98 0 -162 48t-78 146h173q-1 -8 -1 -19q0 -58 24.5 -93t66.5 -35t70.5 34.5t28.5 86.5q0 80 -72 124.5t-201 48.5l136 360h335l-31 -134h-301z" />
    <glyph glyph-name="six.osf" horiz-adv-x="646" 
d="M437 610q-71 -35 -121 -96.5t-74 -142.5q24 26 62 44.5t81 18.5q50 0 95 -24.5t73.5 -71.5t28.5 -112q0 -67 -31 -121t-89.5 -85t-136.5 -31q-84 0 -144 36.5t-90.5 98t-30.5 135.5q0 106 60.5 207.5t180 167.5t286.5 66h18l-13 -55q-84 0 -155 -35zM390.5 312.5
q-33.5 40.5 -83.5 40.5q-43 0 -75 -21q-4 -12 -7.5 -46.5t-3.5 -65.5q0 -82 29.5 -133t77.5 -51q45 0 70.5 43t25.5 110q0 83 -33.5 123.5z" />
    <glyph glyph-name="seven.osf" horiz-adv-x="557" 
d="M574 550l-15 -68l-369 -622h-124l376 556h-395l31 134h496z" />
    <glyph glyph-name="eight.osf" horiz-adv-x="642" 
d="M558 448.5q-52 -41.5 -142 -58.5q52 -33 82 -57t51.5 -60t21.5 -84q0 -60 -34 -105t-96.5 -70t-145.5 -25q-81 0 -140.5 23t-91.5 62t-32 86q0 65 55 112.5t147 60.5q-49 35 -76.5 76.5t-27.5 98.5q0 92 68.5 142t177.5 50q68 0 121.5 -19.5t83.5 -54t30 -78.5
q0 -58 -52 -99.5zM428.5 483.5q20.5 37.5 20.5 76.5q0 41 -20.5 67t-59.5 26t-63.5 -26t-24.5 -70q0 -45 24 -77t69 -64q34 30 54.5 67.5zM385.5 63.5q32.5 29.5 32.5 76.5q0 33 -16.5 59t-40 45t-67.5 48l-20 13q-37 -28 -59.5 -67.5t-22.5 -86.5q0 -49 27.5 -83t82.5 -34
q51 0 83.5 29.5z" />
    <glyph glyph-name="nine.osf" horiz-adv-x="646" 
d="M218 -57q71 35 121 96.5t74 142.5q-24 -26 -62 -44.5t-81 -18.5q-50 0 -95 24.5t-73.5 71.5t-28.5 112q0 67 31 121t89.5 85t136.5 31q84 0 144 -36.5t90.5 -98t30.5 -135.5q0 -106 -60.5 -207.5t-180 -167.5t-286.5 -66h-18l13 55q84 0 155 35zM264.5 240.5
q33.5 -40.5 83.5 -40.5q43 0 75 21q4 12 7.5 46.5t3.5 65.5q0 82 -29.5 133t-77.5 51q-45 0 -70.5 -43t-25.5 -110q0 -83 33.5 -123.5z" />
    <glyph glyph-name="zero.tf" 
d="M569 638q57 -62 57 -181q0 -111 -47 -219.5t-132.5 -178.5t-195.5 -70q-101 0 -158 62.5t-57 182.5q0 112 47 220t132.5 177t194.5 69q102 0 159 -62zM359.5 121q44.5 76 72 186.5t27.5 203.5q0 64 -13.5 99t-52.5 35q-48 0 -92.5 -76t-72 -186.5t-27.5 -203.5
q0 -64 13 -99t53 -35q48 0 92.5 76z" />
    <glyph glyph-name="one.tf" 
d="M367 89q0 -35 45 -37l85 -3l-12 -49h-429l12 49l85 3q54 2 66 54l109 469q-29 -10 -70 -14.5t-68 -4.5l12 55q63 0 130 20.5t110 58.5h63l-136 -584q-2 -12 -2 -17z" />
    <glyph glyph-name="two.tf" 
d="M232.5 658q70.5 42 146.5 42q54 0 96.5 -21t66.5 -59.5t24 -87.5q0 -66 -42 -126t-97.5 -105.5t-138.5 -102.5l-32 -22l-60 -42h344l-31 -134h-493l16 68l67 52l40 31q94 73 146.5 119t86.5 98t34 107q0 51 -28.5 81t-75.5 30q-80 0 -146 -87l-41 28q47 89 117.5 131z
" />
    <glyph glyph-name="three.tf" 
d="M500.5 318.5q43.5 -47.5 43.5 -113.5q0 -58 -31.5 -107.5t-90 -79t-134.5 -29.5q-98 0 -166 49.5t-80 144.5h172l-1 -17q0 -62 22.5 -96t62.5 -34q41 0 66 34t25 83q0 70 -56.5 114.5t-147.5 49.5l14 55q104 23 168 56t64 93q0 32 -20 52t-64 20q-47 0 -95 -23.5
t-79 -57.5l-39 32q46 70 122.5 113t162.5 43q58 0 98.5 -19t60.5 -50t20 -67q0 -62 -59 -109.5t-169 -69.5q87 -19 130.5 -66.5z" />
    <glyph glyph-name="four.tf" 
d="M588 304l-31 -134h-112l-40 -170h-149l40 170h-293l29 126l401 394h132l-89 -386h112zM327 304l59 259l-262 -259h203z" />
    <glyph glyph-name="five.tf" 
d="M273 556l-33 -89q151 -9 227 -74.5t76 -169.5q0 -66 -30.5 -119.5t-88.5 -84t-139 -30.5q-98 0 -162 48t-78 146h173q-1 -8 -1 -19q0 -58 24.5 -93t66.5 -35t70.5 34.5t28.5 86.5q0 80 -72 124.5t-201 48.5l136 360h335l-31 -134h-301z" />
    <glyph glyph-name="six.tf" 
d="M434 610q-71 -35 -121 -96.5t-74 -142.5q24 26 62 44.5t81 18.5q50 0 95 -24.5t73.5 -71.5t28.5 -112q0 -67 -31 -121t-89.5 -85t-136.5 -31q-84 0 -144 36.5t-90.5 98t-30.5 135.5q0 106 60.5 207.5t180 167.5t286.5 66h18l-13 -55q-84 0 -155 -35zM387.5 312.5
q-33.5 40.5 -83.5 40.5q-43 0 -75 -21q-4 -12 -7.5 -46.5t-3.5 -65.5q0 -82 29.5 -133t77.5 -51q45 0 70.5 43t25.5 110q0 83 -33.5 123.5z" />
    <glyph glyph-name="seven.tf" 
d="M653 690l-15 -68l-389 -622h-124l396 556h-425l31 134h526z" />
    <glyph glyph-name="eight.tf" 
d="M547 448.5q-52 -41.5 -142 -58.5q52 -33 82 -57t51.5 -60t21.5 -84q0 -60 -34 -105t-96.5 -70t-145.5 -25q-81 0 -140.5 23t-91.5 62t-32 86q0 65 55 112.5t147 60.5q-49 35 -76.5 76.5t-27.5 98.5q0 92 68.5 142t177.5 50q68 0 121.5 -19.5t83.5 -54t30 -78.5
q0 -58 -52 -99.5zM417.5 483.5q20.5 37.5 20.5 76.5q0 41 -20.5 67t-59.5 26t-63.5 -26t-24.5 -70q0 -45 24 -77t69 -64q34 30 54.5 67.5zM374.5 63.5q32.5 29.5 32.5 76.5q0 33 -16.5 59t-40 45t-67.5 48l-20 13q-37 -28 -59.5 -67.5t-22.5 -86.5q0 -49 27.5 -83t82.5 -34
q51 0 83.5 29.5z" />
    <glyph glyph-name="nine.tf" 
d="M216 79q71 35 121 96.5t74 142.5q-24 -26 -62 -44.5t-81 -18.5q-50 0 -95 24.5t-73.5 71.5t-28.5 112q0 67 31 121t89.5 85t136.5 31q84 0 144 -36.5t90.5 -98t30.5 -135.5q0 -106 -60.5 -207.5t-180 -167.5t-286.5 -66h-18l13 55q84 0 155 35zM262.5 376.5
q33.5 -40.5 83.5 -40.5q43 0 75 21q4 12 7.5 46.5t3.5 65.5q0 82 -29.5 133t-77.5 51q-45 0 -70.5 -43t-25.5 -110q0 -83 33.5 -123.5z" />
    <glyph glyph-name="zero.dnom" horiz-adv-x="359" 
d="M318 396.5q35 -38.5 35 -114.5q0 -69 -28.5 -136.5t-81 -110.5t-120.5 -43q-62 0 -97.5 39t-35.5 116q0 70 29 136.5t81.5 109t119.5 42.5q63 0 98 -38.5zM183 82q27 45 44 111.5t17 123.5q0 74 -31 74q-26 0 -52.5 -45t-44 -111.5t-17.5 -125.5q0 -72 31 -72q26 0 53 45
z" />
    <glyph glyph-name="one.dnom" horiz-adv-x="360" 
d="M285 43l-10 -44h-306l10 44l77 3q13 1 22 9t12 20l63 278q-21 -7 -47 -10.5t-44 -3.5l10 41q43 0 86 14t74 41h43l-80 -344q-5 -22 -5 -25q0 -11 6.5 -15t18.5 -5z" />
    <glyph glyph-name="two.dnom" horiz-adv-x="359" 
d="M-12 48l42 33l32 25q57 45 86 70.5t48 55t19 61.5q0 29 -15.5 45.5t-41.5 16.5q-57 0 -98 -69l-33 20q28 61 75 95t103 34q52 0 85 -30.5t33 -77.5q0 -39 -24 -74.5t-56 -62.5t-81 -62q-16 -10 -30 -21l-23 -17h200l-22 -91h-311z" />
    <glyph glyph-name="three.dnom" horiz-adv-x="359" 
d="M305.5 281.5q-31.5 -28.5 -90.5 -43.5q42 -14 65.5 -42t23.5 -67t-21 -70.5t-58 -49t-83 -17.5q-66 0 -107.5 34.5t-46.5 93.5h116q-1 -7 -1 -21q0 -32 12.5 -50t34.5 -18q21 0 35 18.5t14 47.5q0 42 -34 68t-89 28l11 41q64 14 101.5 33.5t37.5 53.5q0 19 -12 29.5
t-34 10.5q-27 0 -56 -14.5t-51 -39.5l-30 27q30 47 79.5 74t102.5 27q50 0 81 -24t31 -64q0 -37 -31.5 -65.5z" />
    <glyph glyph-name="four.dnom" horiz-adv-x="360" 
d="M336 176l-21 -92h-70l-19 -82h-103l20 82h-184l20 86l253 258h92l-58 -252h70zM49 176h115l35 152z" />
    <glyph glyph-name="five.dnom" horiz-adv-x="360" 
d="M345 426l-22 -91h-183l-17 -45q87 -6 134.5 -45t47.5 -106q0 -65 -44 -106t-119 -41q-66 0 -105.5 33.5t-46.5 94.5h118q-1 -6 -1 -17q0 -33 13 -52.5t35 -19.5q21 0 34.5 18.5t13.5 48.5q0 49 -39 73t-121 26l86 229h216z" />
    <glyph glyph-name="six.dnom" horiz-adv-x="360" 
d="M199.5 353q-55.5 -39 -80.5 -108q24 22 70 22q60 0 95.5 -34t35.5 -92q0 -66 -44.5 -107.5t-115.5 -41.5q-74 0 -121 46.5t-47 121.5q0 66 37.5 129.5t111.5 104.5t177 41h18l-10 -43q-71 0 -126.5 -39zM196 188q-18 25 -51 25q-22 0 -39 -10q-5 -24 -5 -56
q0 -54 15.5 -85t43.5 -31q24 0 39 24t15 64q0 44 -18 69z" />
    <glyph glyph-name="seven.dnom" horiz-adv-x="360" 
d="M372 429l-11 -49l-230 -378h-90l234 336h-243l21 91h319z" />
    <glyph glyph-name="eight.dnom" horiz-adv-x="360" 
d="M289.5 186.5q23.5 -26.5 23.5 -67.5q0 -58 -47 -92.5t-125 -34.5q-74 0 -120.5 30.5t-46.5 78.5q0 41 32.5 70.5t91.5 39.5q-31 19 -47.5 43.5t-16.5 58.5q0 56 42 89t112 33q65 0 107 -27.5t42 -70.5q0 -34 -30 -61.5t-85 -40.5q44 -22 67.5 -48.5zM149.5 381.5
q-13.5 -14.5 -13.5 -38.5q0 -25 13.5 -43.5t38.5 -35.5q22 17 32.5 38t10.5 43q0 24 -12.5 37.5t-33.5 13.5q-22 0 -35.5 -14.5zM191.5 46q18.5 17 18.5 43q0 20 -11 36t-25 26t-46 31q-21 -17 -33 -39.5t-12 -46.5q0 -31 16.5 -49t45.5 -18q28 0 46.5 17z" />
    <glyph glyph-name="nine.dnom" horiz-adv-x="360" 
d="M3 -11l10 44q71 -1 126 38.5t80 107.5q-23 -22 -70 -22q-60 0 -95.5 34t-35.5 92q0 65 45 107t116 42q74 0 120.5 -46.5t46.5 -121.5q0 -66 -37.5 -129.5t-111.5 -104.5t-177 -41h-17zM143 236q18 -25 50 -25q20 0 39 11q6 27 6 59q0 52 -16 82t-43 30q-24 0 -39 -24
t-15 -64q0 -44 18 -69z" />
    <glyph glyph-name="zero.numr" horiz-adv-x="360" 
d="M380 661.5q35 -38.5 35 -114.5q0 -69 -28.5 -136.5t-81 -110.5t-120.5 -43q-62 0 -97.5 39t-35.5 116q0 70 29 136.5t81.5 109t119.5 42.5q63 0 98 -38.5zM245 347q27 45 44 111.5t17 123.5q0 74 -31 74q-26 0 -52.5 -45t-44 -111.5t-17.5 -125.5q0 -72 31 -72
q26 0 53 45z" />
    <glyph glyph-name="one.numr" horiz-adv-x="360" 
d="M346 308l-10 -44h-306l10 44l77 3q13 1 22 9t12 20l63 278q-21 -7 -47 -10.5t-44 -3.5l10 41q43 0 86 14t74 41h43l-80 -344q-5 -22 -5 -25q0 -11 6.5 -15t18.5 -5z" />
    <glyph glyph-name="two.numr" horiz-adv-x="360" 
d="M50 313l42 33l32 25q57 45 86 70.5t48 55t19 61.5q0 29 -15.5 45.5t-41.5 16.5q-57 0 -98 -69l-33 20q28 61 75 95t103 34q52 0 85 -30.5t33 -77.5q0 -39 -24 -74.5t-56 -62.5t-81 -62q-16 -10 -30 -21l-23 -17h200l-22 -91h-311z" />
    <glyph glyph-name="three.numr" horiz-adv-x="360" 
d="M367.5 546.5q-31.5 -28.5 -90.5 -43.5q42 -14 65.5 -42t23.5 -67t-21 -70.5t-58 -49t-83 -17.5q-66 0 -107.5 34.5t-46.5 93.5h116q-1 -7 -1 -21q0 -32 12.5 -50t34.5 -18q21 0 35 18.5t14 47.5q0 42 -34 68t-89 28l11 41q64 14 101.5 33.5t37.5 53.5q0 19 -12 29.5
t-34 10.5q-27 0 -56 -14.5t-51 -39.5l-30 27q30 47 79.5 74t102.5 27q50 0 81 -24t31 -64q0 -37 -31.5 -65.5z" />
    <glyph glyph-name="four.numr" horiz-adv-x="360" 
d="M397 438l-21 -92h-70l-19 -82h-103l20 82h-184l20 86l253 258h92l-58 -252h70zM110 438h115l35 152z" />
    <glyph glyph-name="five.numr" horiz-adv-x="360" 
d="M407 691l-22 -91h-183l-17 -45q87 -6 134.5 -45t47.5 -106q0 -65 -44 -106t-119 -41q-66 0 -105.5 33.5t-46.5 94.5h118q-1 -6 -1 -17q0 -33 13 -52.5t35 -19.5q21 0 34.5 18.5t13.5 48.5q0 49 -39 73t-121 26l86 229h216z" />
    <glyph glyph-name="six.numr" horiz-adv-x="360" 
d="M260.5 618q-55.5 -39 -80.5 -108q24 22 70 22q60 0 95.5 -34t35.5 -92q0 -66 -44.5 -107.5t-115.5 -41.5q-74 0 -121 46.5t-47 121.5q0 66 37.5 129.5t111.5 104.5t177 41h18l-10 -43q-71 0 -126.5 -39zM257 453q-18 25 -51 25q-22 0 -39 -10q-5 -24 -5 -56
q0 -54 15.5 -85t43.5 -31q24 0 39 24t15 64q0 44 -18 69z" />
    <glyph glyph-name="seven.numr" horiz-adv-x="360" 
d="M432 691l-11 -49l-230 -378h-90l234 336h-243l21 91h319z" />
    <glyph glyph-name="eight.numr" horiz-adv-x="360" 
d="M350.5 451.5q23.5 -26.5 23.5 -67.5q0 -58 -47 -92.5t-125 -34.5q-74 0 -120.5 30.5t-46.5 78.5q0 41 32.5 70.5t91.5 39.5q-31 19 -47.5 43.5t-16.5 58.5q0 56 42 89t112 33q65 0 107 -27.5t42 -70.5q0 -34 -30 -61.5t-85 -40.5q44 -22 67.5 -48.5zM210.5 646.5
q-13.5 -14.5 -13.5 -38.5q0 -25 13.5 -43.5t38.5 -35.5q22 17 32.5 38t10.5 43q0 24 -12.5 37.5t-33.5 13.5q-22 0 -35.5 -14.5zM252.5 311q18.5 17 18.5 43q0 20 -11 36t-25 26t-46 31q-21 -17 -33 -39.5t-12 -46.5q0 -31 16.5 -49t45.5 -18q28 0 46.5 17z" />
    <glyph glyph-name="nine.numr" horiz-adv-x="360" 
d="M65 257l10 44q71 -1 126 38.5t80 107.5q-23 -22 -70 -22q-60 0 -95.5 34t-35.5 92q0 65 45 107t116 42q74 0 120.5 -46.5t46.5 -121.5q0 -66 -37.5 -129.5t-111.5 -104.5t-177 -41h-17zM205 504q18 -25 50 -25q20 0 39 11q6 27 6 59q0 52 -16 82t-43 30q-24 0 -39 -24
t-15 -64q0 -44 18 -69z" />
    <glyph glyph-name="exclamdown.cap" horiz-adv-x="390" 
d="M344.5 631.5q28.5 -28.5 28.5 -70.5t-28.5 -69.5t-73.5 -27.5q-46 0 -74.5 28t-28.5 69q0 42 28.5 70.5t73.5 28.5q46 0 74.5 -28.5zM273 418l-54 -468h-178l175 468h57z" />
    <glyph glyph-name="questiondown.cap" horiz-adv-x="435" 
d="M392.5 648.5q28.5 -28.5 28.5 -70.5t-28.5 -69.5t-73.5 -27.5q-46 0 -74.5 28t-28.5 69q0 42 28.5 70.5t73.5 28.5q46 0 74.5 -28.5zM104.5 24q-67.5 67 -67.5 153q0 50 20.5 81t50.5 46.5t73 28.5q48 15 70.5 28t27.5 40q2 10 2 32h35q35 -48 35 -94q0 -52 -37 -78
t-101 -42l-25 -6q-47 -12 -67.5 -21.5t-20.5 -28.5q0 -35 69.5 -51t175.5 -25l-37 -162q-136 32 -203.5 99z" />
    <glyph glyph-name="periodcentered.cap" horiz-adv-x="300" 
d="M128.5 369.5q-28.5 28.5 -28.5 70.5t28.5 69.5t73.5 27.5q46 0 74.5 -28t28.5 -69q0 -42 -28.5 -70.5t-73.5 -28.5q-46 0 -74.5 28.5z" />
    <glyph glyph-name="bullet.cap" horiz-adv-x="406" 
d="M174 308q-35 20 -54 54t-19 75t19.5 74t54.5 52t79 19q46 0 81 -19.5t54 -52.5t19 -73q0 -41 -19 -75t-54 -54t-80 -20q-46 0 -81 20z" />
    <glyph glyph-name="hyphen.cap" horiz-adv-x="386" 
d="M88 422h287l-22 -98h-287z" />
    <glyph glyph-name="endash.cap" horiz-adv-x="567" 
d="M70 338l17 77h466l-17 -77h-466z" />
    <glyph glyph-name="emdash.cap" horiz-adv-x="1033" 
d="M69 338l18 77h933l-18 -77h-933z" />
    <glyph glyph-name="guillemotleft.cap" horiz-adv-x="523" 
d="M173 326l53 -170l-47 -28l-146 186l13 52l218 186l42 -43zM397 326l53 -170l-47 -28l-146 186l13 52l218 186l42 -43z" />
    <glyph glyph-name="guillemotright.cap" horiz-adv-x="525" 
d="M170 375l-53 170l47 28l146 -186l-13 -52l-218 -186l-42 43zM395 375l-53 170l47 28l146 -186l-13 -52l-218 -186l-42 43z" />
    <glyph glyph-name="guilsinglleft.cap" horiz-adv-x="299" 
d="M173 326l53 -170l-47 -28l-146 186l13 52l218 186l42 -43z" />
    <glyph glyph-name="guilsinglright.cap" horiz-adv-x="300" 
d="M170 375l-53 170l47 28l146 -186l-13 -52l-218 -186l-42 43z" />
    <glyph glyph-name="at.cap" horiz-adv-x="902" 
d="M711 727q81 -33 131 -102t50 -172q0 -77 -27.5 -146.5t-78 -112t-115.5 -42.5q-46 0 -81.5 22.5t-51.5 61.5q-30 -44 -64 -64t-77 -20q-67 0 -101 42t-34 106q0 61 30 122.5t84.5 101.5t122.5 40q35 0 63.5 -11.5t42.5 -30.5l13 35h105l-69 -193q-11 -33 -17.5 -55.5
t-6.5 -42.5q0 -53 55 -53q40 0 72 31t50 83.5t18 113.5q0 87 -38.5 145.5t-103 86.5t-145.5 28q-124 0 -217 -60t-142 -154.5t-49 -194.5q0 -83 35 -144.5t99 -95t150 -33.5q44 0 89 9l6 -51q-46 -20 -118 -20q-106 0 -180 44.5t-110.5 119t-36.5 164.5q0 114 56.5 224
t163.5 180.5t251 70.5q95 0 176 -33zM581 465q-4 20 -20 33.5t-44 13.5q-39 0 -71.5 -27.5t-50.5 -69.5t-18 -82q0 -42 18.5 -67.5t54.5 -25.5q28 0 58 20z" />
    <glyph glyph-name="acute.cap" horiz-adv-x="232" 
d="M208 776h-88l127 162h142z" />
    <glyph glyph-name="breve.cap" horiz-adv-x="262" 
d="M411 921q0 -34 -16 -71t-51.5 -63t-89.5 -26q-57 0 -84 28.5t-27 70.5q0 40 22 81h73q-10 -27 -10 -48q0 -44 38 -44q30 0 45.5 26t15.5 60v6h83q1 -5 1 -20z" />
    <glyph glyph-name="caron.cap" horiz-adv-x="350" 
d="M329 776h-69l-99 176h90l57 -77l95 77h108z" />
    <glyph glyph-name="cedilla.cap" horiz-adv-x="212" 
d="M99.5 -68q24.5 -18 24.5 -49q0 -39 -32.5 -67.5t-84.5 -28.5q-32 0 -60 11.5t-46 30.5l34 41q32 -34 70 -34q27 0 44.5 13t17.5 32q0 41 -91 40l34 80h36l-14 -49q43 -2 67.5 -20z" />
    <glyph glyph-name="circumflex.cap" horiz-adv-x="350" 
d="M323 854l-95 -78h-108l182 176h69l99 -176h-89z" />
    <glyph glyph-name="dieresis.cap" horiz-adv-x="363" 
d="M378.5 898.5q18.5 19.5 50.5 19.5q31 0 49.5 -19.5t18.5 -51.5q0 -33 -19 -52t-51 -19q-30 0 -48.5 19t-18.5 51q0 33 18.5 52.5zM157.5 898q18.5 19 50.5 19q31 0 49 -19t18 -51q0 -33 -18 -52t-49 -19t-50 19.5t-19 51.5t18.5 51z" />
    <glyph glyph-name="dotaccent.cap" horiz-adv-x="211" 
d="M174.5 804.5q-28.5 28.5 -28.5 70.5t28.5 69.5t73.5 27.5q46 0 74.5 -28t28.5 -69q0 -42 -28.5 -70.5t-73.5 -28.5q-46 0 -74.5 28.5z" />
    <glyph glyph-name="grave.cap" horiz-adv-x="197" 
d="M157 937h117l43 -161h-76z" />
    <glyph glyph-name="hungarumlaut.cap" horiz-adv-x="287" 
d="M192 934h101l-90 -158h-83zM341 934h102l-92 -158h-82z" />
    <glyph glyph-name="macron.cap" horiz-adv-x="299" 
d="M440 872l-21 -96h-299l22 96h298z" />
    <glyph glyph-name="ring.cap" horiz-adv-x="206" 
d="M168.5 922q28.5 28 70.5 28q44 0 72.5 -28t28.5 -72q0 -43 -28.5 -72t-72.5 -29q-42 0 -70.5 29t-28.5 72q0 44 28.5 72zM276.5 888.5q-14.5 15.5 -36.5 15.5q-23 0 -37 -15.5t-14 -38.5q0 -24 14 -39t37 -15q22 0 36.5 15.5t14.5 38.5t-14.5 38.5z" />
    <glyph glyph-name="tilde.cap" horiz-adv-x="313" 
d="M430 813.5q-29 -37.5 -74 -37.5q-21 0 -38.5 7.5t-38.5 21.5q-16 11 -27.5 16t-22.5 5q-17 0 -30.5 -12t-16.5 -33h-55q1 66 30 103.5t75 37.5q21 0 38 -7.5t38 -21.5q19 -11 29 -16t22 -5q17 0 30 12t16 36h55q-1 -69 -30 -106.5z" />
    <glyph glyph-name="ffl" horiz-adv-x="939" 
d="M813.5 155.5q-4.5 -19.5 -4.5 -36.5q0 -46 41 -46q25 0 55 14l-13 -56q-66 -37 -132 -37q-51 0 -77 28t-26 81q0 30 9 67l104 448q-15 24 -45.5 37t-64.5 13q-53 0 -91 -25t-38 -69q0 -61 77 -61h101l-12 -55h-111l-105 -458h-150l105 458h-150l-105 -458h-150l105 458
h-113l12 55h113l5 22q28 123 98 191t162 68q17 0 47 -4l-31 -139q-38 10 -71 10q-53 0 -90 -24.5t-37 -64.5q0 -34 24 -46.5t53 -12.5h140l5 22q28 123 97.5 191t161.5 68q41 0 86 -13l-13 -60l163 26l-129 -569q-1 -3 -5.5 -22.5z" />
    </font>
</defs>
</svg>
